imdb
rating

6.4
Colombiana

Colombiana (2011)

Action, Crime, Drama, Thriller

Full description
quality   dvdrip telesync cam h264 dvd

Colombiana 2011 720p Bluray anoXmous

Size 732.158 MB   2 seeders     Added 2013-02-06 04:21:00

Stream torrent
Starting‥ You need BitLord! Get it from BitLord.com
To download or stream you need BitLord. Visit them at BitLord.com

[color=red][b]Colombiana.2011.720p.BRRip.x264.aac.mp4.anoXmous[/b][/color]

---------------------------------------------------------------------------------------------------------------------------
[b]
Language : English
Subtitles : English, Swedish
[/b]
---------------------------------------------------------------------------------------------------------------------------

[color=blue][b]Screenshots:[/b][/color] 
http://www.imagebam.com/image/642f4d161706304

---------------------------------------------------------------------------------------------------------------------------

[color=blue][b]Info[/b][/color]

Format : MPEG-4
Format profile : Base Media
Codec ID : isom
File size : 698 MiB
Duration : 1h 43mn
Overall bit rate mode : Variable
Overall bit rate : 943 Kbps


[b]Video[/b]
ID : 1
Format : AVC
Format/Info : Advanced Video Codec
Format profile : High@L4.1
Format settings, CABAC : Yes
Format settings, ReFrames : 4 frames
Codec ID : avc1
Codec ID/Info : Advanced Video Coding
Duration : 1h 43mn
Bit rate : 868 Kbps
Maximum bit rate : 5 728 Kbps
Width : 1 280 pixels
Height : 544 pixels
Display aspect ratio : 2.35:1
Frame rate mode : Constant
Frame rate : 25.000 fps
Color space : YUV
Chroma subsampling : 4:2:0
Bit depth : 8 bits
Scan type : Progressive
Bits/(Pixel*Frame) : 0.050
Stream size : 642 MiB (92%)
Writing library : x264 core 119 r2106 07efeb4


[b]Audio[/b]
ID : 2
Format : AAC
Format/Info : Advanced Audio Codec
Format profile : LC
Codec ID : 40
Duration : 1h 43mn
Bit rate mode : Variable
Bit rate : 72.0 Kbps
Maximum bit rate : 97.3 Kbps
Channel(s) : 2 channels
Channel positions : Front: L R
Sampling rate : 48.0 KHz 
Compression mode : Lossy
Stream size : 53.9 MiB (8%)
Language : English

---------------------------------------------------------------------------------------------------------------------------

http://www.imdb.com/title/tt1657507/

---------------------------------------------------------------------------------------------------------------------------

+++++++This 1 should work very fine with PSP and XBOX :)+++++++++	

---------------------------------------------------------------------------------------------------------------------------
Colombiana.2011.720p.BRRip.x264.aac.mp4.anoXmous.mp4 732.052 MB
Colombiana.2011.720p.BRRip.x264.aac.mp4.anoXmous_eng.srt 58.591 KB
Colombiana.2011.720p.BRRip.x264.aac.mp4.anoXmous_swe.srt 44.708 KB
Gathering some info...

Register and log in Isohunt and see no captcha anymore!

4000 symbols left
Hash E5E6AB4BBB2684D8F4D9E5AF90702BF47D265D47

Related torrents for "Colombiana 2011 720p Bluray anoXmous"

Torrent search:

hd bd 2011