imdb
rating

7.7
Barton Fink

Barton Fink (1991)

Comedy, Drama, Thriller

Full description
quality   x264 hd bd dvdrip dvdr

Barton Fink 1991 720p Bluray anoXmous

Size 732.375 MB   201 seeders     Added 2013-02-06 04:41:04

Stream torrent
Starting‥ You need BitLord! Get it from 1BitLord.com
6.7
To download or stream you need BitLord. Visit them at BitLord.com

[color=red][b]Barton.Fink.1991.720p.BRRip.x264.aac.mp4-anoXmous[/b][/color]

---------------------------------------------------------------------------------------------------------------------------
[b]
Language : English
Subtitles : English, Swedish
[/b]
---------------------------------------------------------------------------------------------------------------------------

[color=blue][b]Screens:[/b][/color] 
http://www.imagebam.com/image/57ca38160704879

---------------------------------------------------------------------------------------------------------------------------

[color=blue][b]Info[/b][/color]

Format : MPEG-4
Format profile : Base Media
Codec ID : isom
File size : 698 MiB
Duration : 1h 56mn
Overall bit rate mode : Variable
Overall bit rate : 835 Kbps

[b]Video[/b]
ID : 1
Format : AVC
Format/Info : Advanced Video Codec
Format profile : High@L4.1
Format settings, CABAC : Yes
Format settings, ReFrames : 4 frames
Codec ID : avc1
Codec ID/Info : Advanced Video Coding
Duration : 1h 56mn
Bit rate : 760 Kbps
Maximum bit rate : 6 121 Kbps
Width : 1 280 pixels
Height : 696 pixels
Display aspect ratio : 16:9
Frame rate mode : Constant
Frame rate : 23.976 fps
Color space : YUV
Chroma subsampling : 4:2:0
Bit depth : 8 bits
Scan type : Progressive
Bits/(Pixel*Frame) : 0.036
Stream size : 636 MiB (91%)
Writing library : x264 core 116 r2074 2641b9e


[b]Audio[/b]
ID : 2
Format : AAC
Format/Info : Advanced Audio Codec
Format profile : LC
Codec ID : 40
Duration : 1h 56mn
Bit rate mode : Variable
Bit rate : 72.0 Kbps
Maximum bit rate : 95.4 Kbps
Channel(s) : 2 channels
Channel positions : Front: L R
Sampling rate : 48.0 KHz 
Compression mode : Lossy
Stream size : 60.0 MiB (9%)
Language : English

---------------------------------------------------------------------------------------------------------------------------
 
 http://www.imdb.com/title/tt0101410/

---------------------------------------------------------------------------------------------------------------------------
Barton.Fink.1991.720p.BRRip.x264.aac.mp4-anoXmous.mp4 732.161 MB
Barton.Fink.1991.720p.BRRip.x264.aac.mp4-anoXmous.mp4_eng.srt 114.752 KB
Barton.Fink.1991.720p.BRRip.x264.aac.mp4-anoXmous.mp4_swe.srt 96.378 KB
Gathering some info...

Register and log in Isohunt and see no captcha anymore!

4000 symbols left
Hash C40ACE742365D82CB98064F7174A3F6AC9CD9406

Related torrents for "Barton Fink 1991 720p Bluray anoXmous"

Torrent search:

1991 hd bd