imdb
rating

7.0
Ladyhawke

Ladyhawke (1985)

Adventure, Fantasy

Full description
quality   dvdrip h264 fullhd bd hd x264

Ladyhawke 1985 720p Bluray anoXmous

Size 733.78 MB   6 seeders     Added 2013-02-06 05:01:57

Stream torrent
Starting‥ You need BitLord! Get it from BitLord.com
To download or stream you need BitLord. Visit them at BitLord.com

[color=red][b]Ladyhawke.1985.720p.BRRip.x264.aac.mp4-anoXmous[/b][/color]

---------------------------------------------------------------------------------------------------------------------------

[b]Language : English

Subtitles : 
English, Swedish, Norwegian, Danish, Finnish[/b]

---------------------------------------------------------------------------------------------------------------------------

[b]Screenshots:[/b] 
http://www.imagebam.com/image/0f0020158713723

---------------------------------------------------------------------------------------------------------------------------

[color=blue][b]Info[/b][/color]

Format : MPEG-4
Format profile : Base Media
Codec ID : isom
File size : 699 MiB
Duration : 2h 1mn
Overall bit rate mode : Variable
Overall bit rate : 808 Kbps


[b]Video[/b]
ID : 1
Format : AVC
Format/Info : Advanced Video Codec
Format profile : High@L4.1
Format settings, CABAC : Yes
Format settings, ReFrames : 4 frames
Codec ID : avc1
Codec ID/Info : Advanced Video Coding
Duration : 2h 1mn
Bit rate : 737 Kbps
Maximum bit rate : 4 246 Kbps
Width : 1 280 pixels
Height : 544 pixels
Display aspect ratio : 2.35:1
Frame rate mode : Constant
Frame rate : 23.976 fps
Color space : YUV
Chroma subsampling : 4:2:0
Bit depth : 8 bits
Scan type : Progressive
Bits/(Pixel*Frame) : 0.044
Stream size : 638 MiB (91%)
Writing library : x264 core 119 r2106 07efeb4


[b]Audio[/b]
ID : 2
Format : AAC
Format/Info : Advanced Audio Codec
Format profile : HE-AAC / LC
Codec ID : 40
Duration : 2h 1mn
Bit rate mode : Variable
Bit rate : 68.6 Kbps
Maximum bit rate : 95.8 Kbps
Channel(s) : 2 channels
Channel positions : Front: L R
Sampling rate : 48.0 KHz / 24.0 KHz
Compression mode : Lossy
Stream size : 59.4 MiB (8%)
Language : English

---------------------------------------------------------------------------------------------------------------------------

http://www.imdb.com/title/tt0089457/

---------------------------------------------------------------------------------------------------------------------------
Info.txt 2.469 KB
Ladyhawke.1985.720p.BRRip.x264.aac.mp4-anoXmous.mp4 733.475 MB
Ladyhawke.1985.720p.BRRip.x264.aac.mp4-anoXmous_dan.srt 59.246 KB
Gathering some info...

Register and log in Isohunt and see no captcha anymore!

4000 symbols left
Hash 886D6A5E261EC0D35E3C6F3FEFE5F3AF09B9BC08

Related torrents for "Ladyhawke 1985 720p Bluray anoXmous"

Torrent search:

1985 hd bd