imdb
rating

7.5
The Constant Gardener

The Constant Gardener (2005)

Drama, Mystery, Thriller

Full description
quality   bd dvdrip dvdr x264 hd fullhd

The Constant Gardener 2005 720p Bluray anoXmous

Size 734.409 MB   1 seeders     Added 2013-02-06 05:02:02

Stream torrent
Starting‥ You need BitLord! Get it from 1BitLord.com
To download or stream you need BitLord. Visit them at BitLord.com

[color=red][b]The.Constant.Gardener.2005.720p.BRRip.x264.aac.mp4-anoXmous[/b][/color]

----------------------------------------------------------------------------------------------------------------------------
[b]
Language	 : English
Subtitles : English , Swedish
[/b]
----------------------------------------------------------------------------------------------------------------------------

[b]Screens:[/b] 
http://www.imagebam.com/image/1d63c7159632301

----------------------------------------------------------------------------------------------------------------------------
[color=blue][b]
Info[/b][/color]

Format : MPEG-4
File size : 700 MiB
Duration : 2h 8mn
Overall bit rate mode : Variable
Overall bit rate : 762 Kbps


[b]Video[/b]
ID : 1
Format : AVC
Format/Info : Advanced Video Codec
Format profile : High@L4.1
Format settings, CABAC : Yes
Format settings, ReFrames : 4 frames
Codec ID : avc1
Codec ID/Info : Advanced Video Coding
Duration : 2h 8mn
Bit rate : 694 Kbps
Maximum bit rate : 5 585 Kbps
Width : 1 280 pixels
Height : 720 pixels
Display aspect ratio : 16:9
Frame rate mode : Constant
Frame rate : 23.976 fps
Color space : YUV
Chroma subsampling : 4:2:0
Bit depth : 8 bits
Scan type : Progressive
Bits/(Pixel*Frame) : 0.031
Stream size : 637 MiB (91%)
Writing library : x264 core 119 r2106 07efeb4


[b]Audio[/b]
ID : 2
Format : AAC
Format/Info : Advanced Audio Codec
Format profile : LC
Codec ID : 40
Duration : 2h 8mn
Bit rate mode : Variable
Bit rate : 66.2 Kbps
Maximum bit rate : 83.6 Kbps
Channel(s) : 2 channels
Channel positions : Front: L R
Sampling rate : 48.0 KHz 
Compression mode : Lossy
Stream size : 60.4 MiB (9%)
Language : English

----------------------------------------------------------------------------------------------------------------------------

http://www.imdb.com/title/tt0387131/

----------------------------------------------------------------------------------------------------------------------------
Info.txt 2.298 KB
The.Constant.Gardener.2005.720p.BRRip.x264.aac.mp4-anoXmous.eng.srt 111.464 KB
The.Constant.Gardener.2005.720p.BRRip.x264.aac.mp4-anoXmous.mp4 734.191 MB
Gathering some info...

Register and log in Isohunt and see no captcha anymore!

4000 symbols left
Hash ECACCBC268637449A4F1016321B4B841174A1E67

Related torrents for "The Constant Gardener 2005 720p Bluray anoXmous"

Torrent search:

2005 hd bd