Nicole Scherzinger - Boomerang 2013 M4A+MP4 (1080p) x264 [VX] [P2PDL]

Size 37.039 MB   29 seeders     Added 2013-02-06 11:20:40

Stream torrent
Starting‚Ä• You need BitLord! Get it from BitLord.com
To download or stream you need BitLord. Visit them at BitLord.com
[center][img]image[/img]


[b]Nicole Scherzinger - Boomerang 2013 M4A+MP4 (1080p) x264 [VX] [P2PDL][/b]


 1080p Full HD MP4 Video
 +
 128 Kbps/VBR M4A Audio

[code]General
Complete name : Nicole Scherzinger - Boomerang (1080p) x264 [VX] [P2PDL].mp4
Format : MPEG-4
Format profile : Base Media / Version 2
Codec ID : mp42
File size : 31.5 MiB
Duration : 3mn 18s
Overall bit rate mode : Variable
Overall bit rate : 1 329 Kbps

Video
Format : AVC
Width : 1 920 pixels
Height : 1 080 pixels
Display aspect ratio : 16:9
Frame rate mode : Constant
Frame rate : 25.000 fps
Stream size : 28.3 MiB (90%)
Writing library : x264 core 128

Audio
Format : AAC
Bit rate mode : Variable
Bit rate : 126 Kbps
Channel(s) : 2 channels
Channel positions : Front: L R
Sampling rate : 48.0 KHz
Stream size : 2.98 MiB (9%)

Subtitles : No[/code]

Screens:

[img]image[/img]
[img]image[/img]
[img]image[/img]

Thumbs:

[img]image[/img]

[img]image[/img]
------------------------------------------------------------------------

Notes:

* Recommended to use latest version VLC Media Player.
* Install shark007 codecs in case of any kind of problem in playback (For non-VLC Media Player users).
* Alternatively, install Core AVC codecs, the fastest decoder that there is coupled with Community Center Codec Pack and play on Windows Media Player Classic.

Greets to: VYTO, a2zRG, MusiK_KinG, Kuroyukihime, Ash968, Neon, Masta, TorDigger and staff members at ExtraTorrent, TPB, H33T, KAT, 1337x, PublicHD, Ahashare, TorrentMafia, Limetorrents, BTScene, P2PDL, and all others

Encoder Notes: Looking For Early Access To Anything You Can Provide DVDScr, R5, DVDRips, BluRay, Direct Audio, Early Music
Releases, Seedboxes, Links, Dedicated Servers anything u can provide, Advance / Promo CDs/DVDs. If You Got anything to
offer contact me at "prg@hush.com".

[URL=http://www.facebook.com/p2pdl][IMG]image[/IMG][/URL][/center]
01 Nicole Scherzinger - Boomerang.m4a 3.952 MB
Cover.jpg 91.677 KB
Info.nfo 9.864 KB
Gathering some info...

Register and log in Isohunt and see no captcha anymore!

4000 symbols left
Hash 468CF49EBEF65BE08672DF6BF7006A3A4AEF9BC9