imdb
rating

8.2
Trainspotting

Trainspotting (1996)

Crime, Drama

Full description
quality   dvdrip hd bd hdtv h264 fullhd x264

Trainspotting 1996 720p Bluray anoXmous

Size 732.165 MB   4 seeders     Added 2013-02-06 15:00:58

Stream torrent
Starting‥ You need BitLord! Get it from BitLord.com
To download or stream you need BitLord. Visit them at BitLord.com

[color=blue][b]Trainspotting.1996.720p.BRRip.x264.ogg.mkv-anoXmous[/b][/color]

---------------------------------------------------------------------------------------------------------------------------
[b]
Language : English
Subtitles : Swedish
[/b]
---------------------------------------------------------------------------------------------------------------------------

[color=blue][b]Screenshots:[/b][/color] 
http://www.imagebam.com/image/268b26155690467

---------------------------------------------------------------------------------------------------------------------------
[color=blue][b]
Info[/b][/color]

Format : Matroska
Format version : Version 2
File size : 698 MiB
Duration : 1h 33mn
Overall bit rate mode : Variable
Overall bit rate : 1 040 Kbps
Writing application : mkvmerge v3.0.0 ('Hang up your Hang-Ups') built on Dec 12 2009 15:20:35
Writing library : libebml v0.7.9 + libmatroska v0.8.1

[b]Video[/b]
ID : 1
Format : AVC
Format/Info : Advanced Video Codec
Format profile : High@L4.1
Format settings, CABAC : Yes
Format settings, ReFrames : 4 frames
Codec ID : V_MPEG4/ISO/AVC
Duration : 1h 33mn
Bit rate : 955 Kbps
Nominal bit rate : 1 023 Kbps
Width : 1 280 pixels
Height : 720 pixels
Display aspect ratio : 16:9
Frame rate : 23.976 fps
Color space : YUV
Chroma subsampling : 4:2:0
Bit depth : 8 bits
Scan type : Progressive
Bits/(Pixel*Frame) : 0.043
Stream size : 641 MiB (92%)
Writing library : x264 core 118 r2085 8a62835


[b]Audio[/b]
ID : 2
Format : Vorbis
Format settings, Floor : 1
Codec ID : A_VORBIS
Duration : 1h 33mn
Bit rate mode : Variable
Bit rate : 64.0 Kbps
Channel(s) : 2 channels
Sampling rate : 48.0 KHz
Compression mode : Lossy
Stream size : 43.0 MiB (6%)
Writing library : aoTuV 20110424 (UTC 2011-04-24)
Language : English

[b]Text[/b]
ID : 3
Format : UTF-8
Codec ID : S_TEXT/UTF8
Codec ID/Info : UTF-8 Plain Text
Title : anoXmous
Language : Swedish

---------------------------------------------------------------------------------------------------------------------------
 
http://www.imdb.com/title/tt0117951/		

---------------------------------------------------------------------------------------------------------------------------
Info.txt 3.108 KB
Trainspotting.1996.720p.BRRip.x264.ogg.mkv-anoXmous.mkv 732.162 MB
Gathering some info...

Register and log in Isohunt and see no captcha anymore!

4000 symbols left
Hash 7314FD3EB55A15DA259ADCA81D68B755AC81A97C

Related torrents for "Trainspotting 1996 720p Bluray anoXmous"

Torrent search:

1996 hd bd