imdb
rating

5.3
The Resident

The Resident (2011)

Mystery, Thriller

Full description
quality   x264 hd bd fullhd dvdrip h264

The Resident 2011 720p Bluray anoXmous

Size 732.169 MB   1 seeders     Added 2013-02-06 15:21:11

Stream torrent
Starting‥ You need BitLord! Get it from BitLord.com
To download or stream you need BitLord. Visit them at BitLord.com

[color=red][b]The.Resident.2011.720p.BRRip.x264.ogg.mkv-anoXmous[/b][/color]

---------------------------------------------------------------------------------------------------------------------------
[b]
Language : English
Subtitles : Swedish
[/b]
---------------------------------------------------------------------------------------------------------------------------
[color=blue][b]
Screenshots:[/b][/color] 
http://www.imagebam.com/image/6d1926154139177

---------------------------------------------------------------------------------------------------------------------------
[color=blue]
[b]Info[/b][/color]

Format : Matroska
Format version : Version 2
File size : 698 MiB
Duration : 1h 31mn
Overall bit rate mode : Variable
Overall bit rate : 1 069 Kbps
Writing application : mkvmerge v4.4.0 ('Die Wiederkehr') built on Oct 31 2010 21:52:4
Writing library : libebml v1.0.0 + libmatroska v1.0.0

[b]Video[/b]
ID : 1
Format : AVC
Format/Info : Advanced Video Codec
Format profile : High@L4.1
Format settings, CABAC : Yes
Format settings, ReFrames : 4 frames
Muxing mode : Header stripping
Codec ID : V_MPEG4/ISO/AVC
Duration : 1h 31mn
Bit rate : 1 009 Kbps
Width : 1 280 pixels
Height : 544 pixels
Display aspect ratio : 2.35:1
Frame rate : 23.976 fps
Color space : YUV
Chroma subsampling : 4:2:0
Bit depth : 8 bits
Scan type : Progressive
Bits/(Pixel*Frame) : 0.060
Stream size : 643 MiB (92%)
Writing library : x264 core 116 r2074 2641b9e


[b]Audio[/b]
ID : 2
Format : Vorbis
Format settings, Floor : 1
Codec ID : A_VORBIS
Duration : 1h 31mn
Bit rate mode : Variable
Bit rate : 64.0 Kbps
Channel(s) : 2 channels
Sampling rate : 48.0 KHz
Compression mode : Lossy
Stream size : 41.8 MiB (6%)
Writing library : aoTuV 20110424 (UTC 2011-04-24)
Language : English

[b]Text[/b]
ID : 3
Format : UTF-8
Codec ID : S_TEXT/UTF8
Codec ID/Info : UTF-8 Plain Text
Language : Swedish

---------------------------------------------------------------------------------------------------------------------------
 
http://www.imdb.com/title/tt1334102/		

---------------------------------------------------------------------------------------------------------------------------
Info.txt 3.064 KB
The.Resident.2011.720p.BRRip.x264.ogg.mkv-anoXmous.mkv 732.166 MB
Gathering some info...

Register and log in Isohunt and see no captcha anymore!

4000 symbols left
Hash 712B72E0DC6D3E86668C7A189142AFD4D35EEE89

Related torrents for "The Resident 2011 720p Bluray anoXmous"

Torrent search:

hd bd 2011