imdb
rating

6.2
Shadow Dancer

Shadow Dancer (2012)

Thriller

Full description
quality   dvdrip hd fullhd bd x264 dvdr

Shadow Dancer (2012) BRRip 720p x264 ESubs AAC

Size 612.123 MB   0 seeders     Added 2013-02-06 15:34:54

Stream torrent
Starting‥ You need BitLord! Get it from 1BitLord.com
To download or stream you need BitLord. Visit them at BitLord.com
[code]General

Complete name : Shadow Dancer (2012) BRRip 720p x264 ESubs AAC.mp4
Format : MPEG-4
Format profile : Base Media / Version 2
Codec ID : mp42
File size : 584 MiB
Duration : 1h 41mn
Overall bit rate mode : Variable
Overall bit rate : 801 Kbps
Writing application : HandBrake 5165svn 2013010701

Video
ID : 1
Format : AVC
Format/Info : Advanced Video Codec
Format profile : High@L4.1
Format settings, CABAC : Yes
Format settings, ReFrames : 4 frames
Codec ID : avc1
Codec ID/Info : Advanced Video Coding
Duration : 1h 41mn
Bit rate mode : Variable
Bit rate : 700 Kbps
Width : 1 280 pixels
Height : 544 pixels
Display aspect ratio : 2.35:1
Frame rate mode : Variable
Frame rate : 23.976 fps
Minimum frame rate : 23.810 fps
Maximum frame rate : 1 000.000 fps
Color space : YUV
Chroma subsampling : 4:2:0
Bit depth : 8 bits
Scan type : Progressive
Bits/(Pixel*Frame) : 0.042
Stream size : 510 MiB (87%)
Writing library : x264 core 128

Audio
ID : 2
Format : AAC
Format/Info : Advanced Audio Codec
Format profile : LC
Codec ID : 40
Duration : 1h 41mn
Bit rate mode : Variable
Bit rate : 96.0 Kbps
Maximum bit rate : 204 Kbps
Channel(s) : 2 channels
Channel positions : Front: L R
Sampling rate : 48.0 KHz
Compression mode : Lossy
Delay relative to video : 83ms
Stream size : 69.9 MiB (12%)
Language : English[/code]
Info.txt 2.252 KB
Shadow Dancer (2012) BRRip 720p x264 ESubs AAC.mp4 612.07 MB
Shadow Dancer (2012) BRRip 720p x264 ESubs AAC.srt 50.599 KB
Gathering some info...

Register and log in Isohunt and see no captcha anymore!

4000 symbols left
Hash B2ABBA2135959CCC143674C1F7ADD67988A53047

Related torrents for "Shadow Dancer (2012) BRRip 720p x264 ESubs AAC"

Torrent search:

x264 hd 2012 bd