imdb
rating

7.6
The Great Debaters

The Great Debaters (2007)

Drama, Family

Full description
quality   screener dvdrip x264 bd hd fullhd

The Great Debaters 2007 720p Bluray anoXmous

Size 731.06 MB   8 seeders     Added 2013-02-06 16:01:25

Stream torrent
Starting‥ You need BitLord! Get it from BitLord.com
To download or stream you need BitLord. Visit them at BitLord.com

[color=red][b]The.Great.Debaters.2007.720p.BRRip.x264.ogg.mkv-anoXmous[/b][/color]

---------------------------------------------------------------------------------------------------------------------------
[b]
Language : English
Subtitles : Swedish
[/b]
---------------------------------------------------------------------------------------------------------------------------

[color=blue][b]Screenshots:[/b][/color] 
http://www.imagebam.com/image/fa49e9152414551

---------------------------------------------------------------------------------------------------------------------------
[color=blue][b]
Info[/b][/color]

Format : Matroska
Format version : Version 2
File size : 697 MiB
Duration : 2h 6mn
Overall bit rate mode : Variable
Overall bit rate : 768 Kbps
Writing application : mkvmerge v4.9.1 ('Ich will') built on Jul 11 2011 23:53:15
Writing library : libebml v1.2.1 + libmatroska v1.1.1

[b]Video[/b]
ID : 1
Format : AVC
Format/Info : Advanced Video Codec
Format profile : High@L4.1
Format settings, CABAC : Yes
Format settings, ReFrames : 4 frames
Codec ID : V_MPEG4/ISO/AVC
Duration : 2h 6mn
Bit rate : 709 Kbps
Width : 1 280 pixels
Height : 532 pixels
Display aspect ratio : 2.40:1
Frame rate : 23.976 fps
Color space : YUV
Chroma subsampling : 4:2:0
Bit depth : 8 bits
Scan type : Progressive
Bits/(Pixel*Frame) : 0.043
Stream size : 625 MiB (90%)
Writing library : x264 core 116 r2074 2641b9e

[b]Audio[/b]
ID : 2
Format : Vorbis
Format settings, Floor : 1
Codec ID : A_VORBIS
Duration : 2h 6mn
Bit rate mode : Variable
Bit rate : 64.0 Kbps
Channel(s) : 2 channels
Sampling rate : 48.0 KHz
Compression mode : Lossy
Stream size : 58.1 MiB (8%)
Writing library : aoTuV 20110424 (UTC 2011-04-24)
Language : English

[b]Text[/b]
ID : 3
Format : UTF-8
Codec ID : S_TEXT/UTF8
Codec ID/Info : UTF-8 Plain Text
Language : Swedish

---------------------------------------------------------------------------------------------------------------------------
 
http://www.imdb.com/title/tt0427309/		

---------------------------------------------------------------------------------------------------------------------------
Info.txt 2.299 KB
The.Great.Debaters.2007.720p.BRRip.x264.ogg.mkv-anoXmous.mkv 731.057 MB
Gathering some info...

Register and log in Isohunt and see no captcha anymore!

4000 symbols left
Hash 2EBED53E88E06B7BA6103B0B880218BF6E0BDA9B

Related torrents for "The Great Debaters 2007 720p Bluray anoXmous"

Torrent search:

2007 hd bd