imdb
rating

9.2
The Godfather

The Godfather (1972)

Crime, Drama

Full description
quality   x264 hd bd dvdrip h264 fullhd hdtv

The Godfather Part I 1972 720p Bluray anoXmous

Size 1.463 GB   0 seeders     Added 2013-02-06 16:21:03

Stream torrent
Starting‥ You need BitLord! Get it from BitLord.com
To download or stream you need BitLord. Visit them at BitLord.com

[color=red][b]The.Godfather.Part.I.1972.720p.BRRip.x264.ogg.mkv-anoXmous[/b][/color]

---------------------------------------------------------------------------------------------------------------------------
[b]
Language : English
Subtitles : English,Swedish
[/b]
---------------------------------------------------------------------------------------------------------------------------
[color=blue]
[b]Screenshots :[/b][/color]
http://www.imagebam.com/image/a89d02152223975

---------------------------------------------------------------------------------------------------------------------------
[color=blue][b]
Info[/b][/color]

Format : Matroska
Format version : Version 2
File size : 1.36 GiB
Duration : 2h 57mn
Overall bit rate mode : Variable
Overall bit rate : 1 101 Kbps
Writing application : mkvmerge v4.9.1 ('Ich will') built on Jul 11 2011 23:53:15
Writing library : libebml v1.2.1 + libmatroska v1.1.1

[b]Video[/b]
ID : 1
Format : AVC
Format/Info : Advanced Video Codec
Format profile : High@L4.1
Format settings, CABAC : Yes
Format settings, ReFrames : 4 frames
Codec ID : V_MPEG4/ISO/AVC
Duration : 2h 57mn
Bit rate : 1 042 Kbps
Width : 1 280 pixels
Height : 720 pixels
Display aspect ratio : 16:9
Frame rate : 23.976 fps
Color space : YUV
Chroma subsampling : 4:2:0
Bit depth : 8 bits
Scan type : Progressive
Bits/(Pixel*Frame) : 0.047
Stream size : 1.26 GiB (92%)
Writing library : x264 core 116 r2074 2641b9e


[b]Audio[/b]
ID : 2
Format : Vorbis
Format settings, Floor : 1
Codec ID : A_VORBIS
Duration : 2h 57mn
Bit rate mode : Variable
Bit rate : 64.0 Kbps
Channel(s) : 2 channels
Sampling rate : 48.0 KHz
Compression mode : Lossy
Stream size : 81.1 MiB (6%)
Writing library : aoTuV 20110424 (UTC 2011-04-24)
Language : English

[b]Text #1[/b]
ID : 3
Format : UTF-8
Codec ID : S_TEXT/UTF8
Codec ID/Info : UTF-8 Plain Text
Language : English

[b]Text #2[/b]
ID : 4
Format : UTF-8
Codec ID : S_TEXT/UTF8
Codec ID/Info : UTF-8 Plain Text
Language : Swedish

---------------------------------------------------------------------------------------------------------------------------
 
http://www.imdb.com/title/tt0068646/		

---------------------------------------------------------------------------------------------------------------------------
Info.txt 2.486 KB
The.Godfather.Part.I.1972.720p.BRRip.x264.ogg.mkv-anoXmous.mkv 1.463 GB
Gathering some info...

Register and log in Isohunt and see no captcha anymore!

4000 symbols left
Hash 28EA4B8B8A08769B2F67C490322A7499528B9C08

Related torrents for "The Godfather Part I 1972 720p Bluray anoXmous"

Torrent search:

1972 hd bd