imdb
rating

7.4
Birdsong

Birdsong (2012)

Drama, History, Romance, TV Movie

Full description
quality   bd x264 dvdrip hd fullhd

Birdsong (2012) 720p MKV x264 AC3 BRrip [Pioneer]

Size 1.854 GB   0 seeders     Added 2013-02-06 17:41:00

Stream torrent
Starting‥ You need BitLord! Get it from BitLord.com
To download or stream you need BitLord. Visit them at BitLord.com
[IMG]image[/IMG]


Two-part TV adaptation of Sebastian Faulks's best-selling novel, charting a doomed love story played out against the backdrop of World War One. In 1910 Englishman Stephen Wraysford (Eddie Redmayne) travels to Amiens, France, to stay at the family home of wealthy factory owner René Azaire (Laurent Lafitte). While there, he begins a passionate affair with René's young wife, Isabelle (Clémence Poésy), eventually convincing her to leave her abusive husband for him. Years later, long after events have conspired to send them both their separate ways, Stephen, now witnessing the full horror of life on the Western Front, decides to make contact with the only woman he ever loved.

Starring: Joseph Mawle, Rory Keenan, Laurent Lafitte, Matthew Aubrey, Thomas Turgoose, Eddie Redmayne, Marie-Josee Croze, George MacKay, Daniel Cerqueira, Richard Madden, Matthew Goode, Anthony Andrews, Clemence Poesy
Director: Philip Martin


http://www.imdb.com/title/tt1127876/


http://www.youtube.com/watch?v=NNXw2ZjvEdU


[IMG]image[/IMG]
[IMG]image[/IMG]
[IMG]image[/IMG]
[IMG]image[/IMG]
[IMG]image[/IMG]
[IMG]image[/IMG]





General
Unique ID: 64372007825310696797247498458059212177 (0x306D9905D2D0CB0760C485C70E678591)
Complete name: D:Birdsong (2012) Pt 1 720p MKV x264 AC3 BRrip [Pioneer].mkv
Format: Matroska
Format version: Version 2
File size: 905 MiB
Duration: 1h 24mn
Overall bit rate: 1 497 Kbps
Writing application: HandBrake 0.9.8
Writing library: libmkv 0.6.5

Video
ID: 1
Format: AVC
Format/Info: Advanced Video Codec
Format profile: High@L3.1
Format settings, CABAC: Yes
Format settings, ReFrames: 4 frames
Codec ID: V_MPEG4/ISO/AVC
Duration: 1h 24mn
Bit rate: 1 300 Kbps
Width: 1 280 pixels
Height: 720 pixels
Display aspect ratio: 16:9
Frame rate mode: Constant
Frame rate: 25.000 fps
Color space: YUV
Chroma subsampling: 4:2:0
Bit depth: 8 bits
Scan type: Progressive
Bits/(Pixel*Frame): 0.056
Stream size: 771 MiB (85%)
Writing library: x264 core 120
Language: English
Default: Yes
Forced: No
Color primaries: BT.709
Transfer characteristics: BT.709
Matrix coefficients: BT.709

Audio
ID: 2
Format: AC-3
Format/Info: Audio Coding 3
Mode extension: CM (complete main)
Format settings, Endianness: Big
Codec ID: A_AC3
Duration: 1h 24mn
Bit rate mode: Constant
Bit rate: 192 Kbps
Channel(s): 6 channels
Channel positions: Front: L C R, Side: L R, LFE
Sampling rate: 48.0 KHz
Bit depth: 16 bits
Compression mode: Lossy
Stream size: 116 MiB (13%)
Language: English
Default: Yes
Forced: No
Birdsong (2012) Pt 1 720p MKV x264 AC3 BRrip [Pioneer].mkv 949.403 MB
Birdsong (2012) Pt 2 720p MKV x264 AC3 BRrip [Pioneer].mkv 904.967 MB
Gathering some info...

Register and log in Isohunt and see no captcha anymore!

4000 symbols left
Hash B33667CD404DF7E74F3206F7E9E84656724D13C2

Related torrents for "Birdsong (2012) 720p MKV x264 AC3 BRrip [Pioneer]"

Torrent search:

x264 hd 2012 bd