imdb
rating

5.7
Hulk

Hulk (2003)

Action, Science Fiction

Full description
quality   telesync dvdrip x264 hd bd fullhd

Hulk [2003] BRRip x264 AAC-V3nom

Size 373.117 MB   5 seeders     Added 2013-02-07 01:42:39

Stream torrent
Starting‥ You need BitLord! Get it from BitLord.com
10
To download or stream you need BitLord. Visit them at BitLord.com
[img]image[/img]

[b][size=200][color=black]PLOT[/color][/size][/b]

[code]Bruce Banner, a genetics researcher with a tragic past, suffers an accident 
that causes him to transform into a raging green monster when he gets angry. [/code]

[b][size=200][color=black]IMDB[/color][/size][/b]

[code]http://www.imdb.com/title/tt0286716/[/code]

[b][size=200][color=black]MOVIE INFO[/color][/size][/b]

[code]Hulk [2003] BRRip x264 AAC-V3nom

Format : MPEG-4
Format profile : Base Media / Version 2
Codec ID : mp42
File size : 353 MiB
Duration : 2h 18mn
Overall bit rate mode : Variable
Overall bit rate : 357 Kbps
Encoded date : UTC 2013-02-06 16:58:38
Tagged date : UTC 2013-02-06 17:47:31

Video
ID : 1
Format : AVC
Format/Info : Advanced Video Codec
Format profile : Main@L2.1
Format settings, CABAC : Yes
Format settings, ReFrames : 4 frames
Codec ID : avc1
Codec ID/Info : Advanced Video Coding
Duration : 2h 18mn
Bit rate mode : Variable
Bit rate : 254 Kbps
Width : 640 pixels
Height : 272 pixels
Display aspect ratio : 1.85:1
Original display aspect ratio : 1.85:1
Frame rate mode : Variable
Frame rate : 23.976 fps
Minimum frame rate : 5.994 fps
Maximum frame rate : 23.981 fps
Color space : YUV
Chroma subsampling : 4:2:0
Bit depth : 8 bits
Scan type : Progressive
Bits/(Pixel*Frame) : 0.061
Stream size : 253 MiB (72%)
Writing library : x264 core 112

Audio
ID : 2
Format : AAC
Format/Info : Advanced Audio Codec
Format profile : LC
Codec ID : 40
Duration : 2h 18mn
Bit rate mode : Variable
Bit rate : 96.0 Kbps
Maximum bit rate : 143 Kbps
Channel(s) : 2 channels
Channel positions : Front: L R
Sampling rate : 48.0 KHz
Compression mode : Lossy
Delay relative to video : 209ms
Stream size : 94.7 MiB (27%)
Encoded date : UTC 2013-02-06 16:58:38
Tagged date : UTC 2013-02-06 17:47:25[/code]

[b][size=200][color=black]SOURCE[/color][/size][/b]

[code]Hulk (2003) 720p BrRip x264 - 800MB - YIFY(Thanks)[/code]

[b][size=200][color=black]SCREENSHOTS[/color][/size][/b]

[img]image[/img]

[img]image[/img][img]image[/img]
Hulk [2003] BRRip x264 AAC-V3nom.jpg 150.373 KB
Hulk [2003] BRRip x264 AAC-V3nom.m4v 370.078 MB
sample.m4v 2.588 MB
Gathering some info...

Register and log in Isohunt and see no captcha anymore!

4000 symbols left
Hash C804047C04F239750B9CFF0028C217212CDF483D

Related torrents for "Hulk [2003] BRRip x264 AAC-V3nom"

Torrent search:

2003 x264 bd