imdb
rating

5.7
Bullet to the Head

Bullet to the Head (2012)

Action, Crime, Thriller

Full description

Bullet to the Head 2012 DVDRiP XViD - TASTE

Size 735.546 MB   0 seeders     Added 2013-02-07 01:40:29

Stream torrent
Starting‥ You need BitLord! Get it from BitLord.com
To download or stream you need BitLord. Visit them at BitLord.com
Bullet to the Head 2012 DVDRiP XViD - TASTE\r\n\r\n\r\n\r\nMovie info :\r\nGENRE............: Action | Crime | Thriller \r\nIMDB RATING......: 6,6/10 from 2.431 users   Metascore: 50/100 \r\n\r\n\r\nSTATS:\r\n\r\nVideo\r\nID                               : 0\r\nFormat                           : MPEG-4 Visual\r\nFormat profile                   : Advanced Simple@L5\r\nFormat settings, BVOP            : 2\r\nFormat settings, QPel            : No\r\nFormat settings, GMC             : No warppoints\r\nFormat settings, Matrix          : Default (MPEG)\r\nMuxing mode                      : Packed bitstream\r\nCodec ID                         : XVID\r\nCodec ID/Hint                    : XviD\r\nDuration                         : 1h 31mn\r\nBit rate                         : 986 Kbps\r\nWidth                            : 720 pixels\r\nHeight                           : 320 pixels\r\nDisplay aspect ratio             : 2.25:1\r\nFrame rate                       : 29.970 fps\r\nColor space                      : YUV\r\nChroma subsampling               : 4:2:0\r\nBit depth                        : 8 bits\r\nScan type                        : Progressive\r\nCompression mode                 : Lossy\r\nBits/(Pixel*Frame)               : 0.243\r\nStream size                      : 647 MiB (92%)\r\nWriting library                  : XviD 64\r\n\r\nAudio\r\n\r\nFormat                           : MPEG Audio\r\nFormat version                   : Version 1\r\nFormat profile                   : Layer 3\r\nMode                             : Joint stereo\r\nMode extension                   : MS Stereo\r\nCodec ID                         : 55\r\nCodec ID/Hint                    : MP3\r\nDuration                         : 1h 31mn\r\nBit rate mode                    : Constant\r\nBit rate                         : 128 Kbps\r\nChannel(s)                       : 2 channels\r\nSampling rate                    : 48.0 KHz\r\nCompression mode                 : Lossy\r\nStream size                      : 56 MiB (7%)\r\nAlignment                        : Split accross interleaves\r\nInterleave, duration             : 33 ms (1.00 video frame)\r\nInterleave, preload duration     : 500 ms\r\n\r\n\r\n\r\n\r\n\r\n\r\n\r\n\r\n\r\n
Bullet to the Head 2012 DVDRiP XViD - TASTE/Bullet to the Head 2012 DVDRiP XViD - TASTE.nfo 2.102 KB
Bullet to the Head 2012 DVDRiP XViD - TASTE/Bullet to the Head 2012 DVDRiP XViD - TASTE.rar 735.052 MB
Bullet to the Head 2012 DVDRiP XViD - TASTE/Screenshot00 .png 24.445 KB
Gathering some info...

Register and log in Isohunt and see no captcha anymore!

4000 symbols left
Hash 096a98eccac036b24d30f18631d9aec56aacd29e

Related torrents for "Bullet to the Head 2012 DVDRiP XViD - TASTE"

Torrent search:

dvdrip 2012