imdb
rating

4.8
Found

Found (2005)

Mystery, Thriller

Full description
quality   fullhd hd telesync x264 hdtv bd

Rihanna ft. Calvin Harris - We Found Love [Music Video] 1080p [Sbyky]

Size 142.675 MB   22 seeders     Added 2013-02-07 12:20:42

Stream torrent
Starting‥ You need BitLord! Get it from BitLord.com
To download or stream you need BitLord. Visit them at BitLord.com
[IMG]image[/IMG]

General
Complete name                            : Rihanna ft. Calvin Harris - We Found Love [Music Video] 1080p [Sbyky].mp4
Format                                   : MPEG-4
Format profile                           : Base Media / Version 2
Codec ID                                 : mp42
File size                                : 136 MiB
Duration                                 : 4mn 35s
Overall bit rate mode                    : Variable
Overall bit rate                         : 4 145 Kbps
Encoded date                             : UTC 2011-10-19 00:42:05
Tagged date                              : UTC 2011-10-19 00:42:05
gsst                                     : 0
gstd                                     : 275400
gssd                                     : BADC23D01HH1359207296547920

Video
ID                                       : 1
Format                                   : AVC
Format/Info                              : Advanced Video Codec
Format profile                           : High@L4.0
Format settings, CABAC                   : Yes
Format settings, ReFrames                : 1 frame
Codec ID                                 : avc1
Codec ID/Info                            : Advanced Video Coding
Duration                                 : 4mn 35s
Bit rate                                 : 3 988 Kbps
Maximum bit rate                         : 8 135 Kbps
Width                                    : 1 920 pixels
Height                                   : 1 080 pixels
Display aspect ratio                     : 16:9
Frame rate mode                          : Constant
Frame rate                               : 25.000 fps
Color space                              : YUV
Chroma subsampling                       : 4:2:0
Bit depth                                : 8 bits
Scan type                                : Progressive
Bits/(Pixel*Frame)                       : 0.077
Stream size                              : 131 MiB (96%)
Tagged date                              : UTC 2011-10-19 00:42:06

Audio
ID                                       : 2
Format                                   : AAC
Format/Info                              : Advanced Audio Codec
Format profile                           : LC
Codec ID                                 : 40
Duration                                 : 4mn 35s
Bit rate mode                            : Variable
Bit rate                                 : 152 Kbps
Maximum bit rate                         : 209 Kbps
Channel(s)                               : 2 channels
Channel positions                        : Front: L R
Sampling rate                            : 44.1 KHz
Compression mode                         : Lossy
Stream size                              : 4.99 MiB (4%)
Title                                    : IsoMedia File Produced by Google, 5-11-2011
Encoded date                             : UTC 2011-10-19 00:42:05
Tagged date                              : UTC 2011-10-19 00:42:06

Shared By Sbyky
[IMG]image[/IMG]
[IMG]image[/IMG]		
Rihanna ft. Calvin Harris - We Found Love [Music Video] 1080p [Sbyky].mp4 142.675 MB
Gathering some info...

Register and log in Isohunt and see no captcha anymore!

4000 symbols left
Hash 507A12B4E25710B0CE1001CC618F23726C48D509

Related torrents for "Rihanna ft. Calvin Harris - We Found Love [Music Video] 1080p [Sbyky]"

Torrent search:

fullhd