Pod taflą oceanu - Under The Sea 3D (2009)[DVDRip.x264.AC3] [Napisy PL][Eng]

Size 2.351 GB   13 seeders     Added 2013-02-07 16:00:59

Stream torrent
Starting‥ You need BitLord! Get it from BitLord.com
To download or stream you need BitLord. Visit them at BitLord.com
[center][img]image[/img]

[i][b]The file containing - sample!!!
Plik zawiera - sample !!!

Film w wersji 3D O/U.[/b][/i]

gatunek: Dokumentalny
produkcja: Kanada USA
premiera: 17 kwietnia 2009 (Polska) 13 lutego 2009 (świat)
reżyseria: Howard Hall
muzyka: Maribeth Solomon , Micky Erbe
zdjęcia: Peter Kragh

Opis Filmu:

An underwater look at the diverse coastal regions of Southern Australia, New Guinea and 
the Indo-Pacific areas and the impact of global warming on the oceans.

"Pod taflą oceanu 3D", nowa przygoda IMAX® 3D przenosi widzów w egzotyczne i odległe 
wody m.in. Australii Południowej, Wielkiej Rafy Koralowej czy wysp trójkąta koralowego 
w Papui Nowej Gwinei i Indonezji, pozwalając im przeżyć bezpośrednie i zapierające dech 
w piersiach spotkanie z tajemniczymi i fascynującymi mieszkańcami oceanów. Film w wyjątkowo 
inspirujący i zajmujący sposób odkrywa piękno i niezwykłą przyrodę oceanów oraz pozwala 
poznać wpływ wywierany przez globalne zmiany klimatyczne na to unikatowe środowisko.

[img]image[/img]
[img]image[/img]
[img]image[/img]

Obsada:

 Jim Carrey ... narrator

Dane Techniczne:

Under The Sea-alE13\Under The Sea (2009) - alE13.mkv
Format : Matroska
Format version : Version 2
File size : 2.15 GiB
Duration : 40mn 54s
Overall bit rate : 7 537 Kbps
Movie name : Under the Sea 3D (2009)-alE13
Encoded date : UTC 2013-02-07 07:48:41
Writing application : mkvmerge v5.8.0
Writing library : libebml v1.2.3 + libmatroska v1.3.0

Video
ID : 1
Format : AVC
Format/Info : Advanced Video Codec
Format profile : Main@L4.0
Format settings, CABAC : Yes
Format settings, ReFrames : 2 frames
Muxing mode : Header stripping
Codec ID : V_MPEG4/ISO/AVC
Duration : 40mn 54s
Bit rate : 7 000 Kbps
Width : 1 920 pixels
Height : 1 080 pixels
Display aspect ratio : 16:9
Frame rate mode : Constant
Frame rate : 24.000 fps
Color space : YUV
Chroma subsampling : 4:2:0
Bit depth : 8 bits
Scan type : Progressive
Bits/(Pixel*Frame) : 0.141
Stream size : 1.93 GiB (90%)
Writing library : x264 core 112 r1834 a51816a

Audio
ID : 3
Format : AC-3
Format/Info : Audio Coding 3
Mode extension : CM (complete main)
Format settings, Endianness : Big
Muxing mode : Header stripping
Codec ID : A_AC3
Duration : 40mn 54s
Bit rate mode : Constant
Bit rate : 640 Kbps
Channel(s) : 6 channels
Channel positions : Front: L C R, Side: L R, LFE
Sampling rate : 48.0 KHz
Bit depth : 16 bits
Compression mode : Lossy
Stream size : 187 MiB (8%)
Language : English
Default : No
Forced : No

Text
ID : 2
Format : VobSub
Muxing mode : zlib
Codec ID : S_VOBSUB
Codec ID/Info : The same subtitle format used on DVDs
Language : Polish
Default : Yes
Forced : No

Menu
00:00:00.000 : :1
00:09:11.509 : :2
00:19:25.748 : :3
00:29:32.604 : :4
00:39:36.291 : :5[/center]
2.jpg 226.272 KB
3D.jpg 150.341 KB
sample.mkv 34.293 MB
Gathering some info...

Register and log in Isohunt and see no captcha anymore!

4000 symbols left
Hash 159C3A8D9C51BECF6B3D82F6DB75CB688914E69E