Monster High Double Feature - Friday Night Frights - Why Do Ghouls Fall in Love 2013

Monster High Double Feature - Friday Night Frights - Why Do Ghouls Fall in Love 2013 (2013)

Full description
quality   dvdrip x264

Monster High Double Feature - Friday Night Frights - Why Do Ghouls Fall in Love 2013 DVDRip x264 AAC-OFFLiNE

Size 1.538 GB   36 seeders     Added 2013-02-07 23:21:27

Stream torrent
Starting‥ You need BitLord! Get it from BitLord.com
To download or stream you need BitLord. Visit them at BitLord.com
[img]image[/img]

The Monster High ghouls are back in a freaky, fabulous double feature that's simply to-die-for! When the boys can't compete in the Skulltimate Roller Maze Championships, Frankie Stein convinces her friends that some "ghoul power" is needed to save the day in the creeptastic, all-new movie, [b][u]Friday Night Frights[/u][/b]. Then, as the epic Sweet 1600th of Draculara approaches, she's got two crush-worthy guys out to steal her heart (literally) before the big event in the new-to-DVD movie[b] [u]Why Do Ghouls Fall in Love[/u][/b]? Get double the dose of ghoul school with these two, fangtastically fabulous adventures - tricked-out with skullastic style and spooktacular laughs!


Monster High: Why Do Ghouls Fall in Love? (TV 2011)
http://www.imdb.com/title/tt2168938/

	
Monster High: Friday Night Frights (2013)
http://www.imdb.com/title/tt2650548/


[code]General
Complete name: Monster High Double Feature - Friday Night Frights - Why Do Ghouls Fall in Love 2013 DVDRip x264 AAC-OFFLiNE.mp4
Format: MPEG-4
Format profile: Base Media
Codec ID: isom
File size: 1.42 GiB
Duration: 1h 32mn
Overall bit rate mode: Variable
Overall bit rate: 2 204 Kbps
Encoded date: UTC 2013-02-05 22:49:59
Tagged date: UTC 2013-02-05 22:49:59

Video
ID: 1
Format: AVC
Format/Info: Advanced Video Codec
Format profile: High@L4.1
Format settings, CABAC: Yes
Format settings, ReFrames: 3 frames
Codec ID: avc1
Codec ID/Info: Advanced Video Coding
Duration: 1h 32mn
Bit rate mode: Variable
Bit rate: 1 862 Kbps
Maximum bit rate: 40.0 Mbps
Width: 720 pixels
Height: 400 pixels
Display aspect ratio: 16:9
Frame rate mode: Constant
Frame rate: 23.976 fps
Color space: YUV
Chroma subsampling: 4:2:0
Bit depth: 8 bits
Scan type: Progressive
Bits/(Pixel*Frame): 0.270
Stream size: 1.20 GiB (84%)
Writing library: x264 core 129 r2245 bc13772

Audio
ID: 2
Format: AAC
Format/Info: Advanced Audio Codec
Format profile: LC
Codec ID: 40
Duration: 1h 32mn
Bit rate mode: Variable
Bit rate: 338 Kbps
Maximum bit rate: 390 Kbps
Channel(s): 6 channels
Channel positions: Front: L C R, Side: L R, LFE
Sampling rate: 48.0 KHz
Compression mode: Lossy
Stream size: 223 MiB (15%)
Language: English
[/code]

[img]image[/img]
[img]image[/img]
[img]image[/img]

http://www.youtube.com/watch?v=ko5Y4MbbLMg
Monster High Double Feature - Friday Night Frights - Why Do Ghouls Fall in Love 2013 DVDRip x264 AAC-OFFLiNE.mp4 1.522 GB
monster.nfo 4.096 KB
sample.mp4 16.075 MB
Gathering some info...

Register and log in Isohunt and see no captcha anymore!

4000 symbols left
Hash 0AF62B6965B9265FAF895EF5C2D59F19D5A0AB89

Related torrents for "Monster High Double Feature - Friday Night Frights - Why Do Ghouls Fall in Love 2013 DVDRip x264 AAC-OFFLiNE"

Torrent search:

dvdrip x264 2013