imdb
rating

6.6
Anna Karenina

Anna Karenina (2012)

Drama, Romance

Full description

Anna Karenina 2012 DVDRip English

Size 730.556 MB   7 seeders     Added 2013-02-08 03:21:26

Stream torrent
Starting‥ You need BitLord! Get it from BitLord.com
10
To download or stream you need BitLord. Visit them at BitLord.com
[img]image[/img]

[b]Cover:[/b]

[img]image[/img]

[b]Release info:[/b]

[code]General
Format : Matroska
Format version : Version 4 / Version 2
File size : 697 MiB
Duration : 2h 4mn
Overall bit rate : 783 Kbps
Movie name : Anna Karenina 2012 DVDRip English

Video
ID : 1
Format : MPEG-4 Visual
Format profile : Simple@L3
Format settings, BVOP : No
Format settings, QPel : No
Format settings, GMC : No warppoints
Format settings, Matrix : Default (H.263)
Codec ID : V_MS/VFW/FOURCC / XVID
Codec ID/Hint : XviD
Duration : 2h 4mn
Bit rate : 640 Kbps
Width : 640 pixels
Height : 272 pixels
Display aspect ratio : 2.35:1
Frame rate mode : Constant
Frame rate : 25.000 fps
Color space : YUV
Chroma subsampling : 4:2:0
Bit depth : 8 bits
Scan type : Progressive
Compression mode : Lossy
Bits/(Pixel*Frame) : 0.147
Stream size : 569 MiB (82%)
Title : Anna Karenina 2012 DVDRip English
Language : English
Default : Yes
Forced : No

Audio
ID : 2
Format : MPEG Audio
Format version : Version 1
Format profile : Layer 3
Mode : Joint stereo
Mode extension : MS Stereo
Codec ID : A_MPEG/L3
Codec ID/Hint : MP3
Duration : 2h 4mn
Bit rate mode : Constant
Bit rate : 128 Kbps
Channel(s) : 2 channels
Sampling rate : 48.0 KHz
Compression mode : Lossy
Stream size : 114 MiB (16%)
Title : Anna Karenina 2012 DVDRip English
Language : English
Default : Yes
Forced : No


Source:
credit to original movie ripper (Thanks)[/code]

[b]IMDB Info:[/b]

[code]Set in late-19th-century Russia high-society, the aristocrat Anna Karenina enters into a life-changing affair with the affluent Count Vronsky.

Director: Joe Wright
Writers: Tom Stoppard (screenplay), Leo Tolstoy (novel)
Stars: Keira Knightley, Jude Law, Aaron Taylor-Johnson

Genres: Drama[/code]

http://www.imdb.com/title/tt1781769/

[b]Screen Shot:[/b]

[img]image[/img]
[img]image[/img]
[img]image[/img]
[img]image[/img]
Anna Karenina 2012 DVDRip English.mkv 730.553 MB
Torrent downloaded from Accipiter torrents on DivXHunt.tk.txt 2.281 KB
Torrent Downloaded From Digtorrent.org.txt 449 B
Gathering some info...

Register and log in Isohunt and see no captcha anymore!

4000 symbols left
Hash FA204DF8DD36BB70325B24297D36C110EF2E529F

Related torrents for "Anna Karenina 2012 DVDRip English"

Torrent search:

dvdrip english 2012