imdb
rating

5.4
Fun Size

Fun Size (2012)

Comedy

Full description
quality   screener dvdrip bd cam telesync

Fun Size 2012 BRRip English Verified

Size 720.666 MB   16 seeders     Added 2013-02-08 03:40:52

Stream torrent
Starting‥ You need BitLord! Get it from BitLord.com
10
To download or stream you need BitLord. Visit them at BitLord.com
Release info:

General
Format                                   : Matroska
Format version                           : Version 4 / Version 2
File size                                : 687 MiB
Duration                                 : 1h 26mn
Overall bit rate mode                    : Variable
Overall bit rate                         : 1 112 Kbps
Movie name                               : Fun Size 2012 BRRip English

Video
ID                                       : 1
Format                                   : MPEG-4 Visual
Format profile                           : Advanced Simple@L5
Format settings, BVOP                    : Yes
Format settings, QPel                    : No
Format settings, GMC                     : No warppoints
Format settings, Matrix                  : Default (H.263)
Codec ID                                 : V_MS/VFW/FOURCC / XVID
Codec ID/Hint                            : XviD
Duration                                 : 1h 26mn
Bit rate                                 : 960 Kbps
Width                                    : 640 pixels
Height                                   : 272 pixels
Display aspect ratio                     : 2.35:1
Frame rate mode                          : Constant
Frame rate                               : 23.976 fps
Color space                              : YUV
Chroma subsampling                       : 4:2:0
Bit depth                                : 8 bits
Scan type                                : Progressive
Compression mode                         : Lossy
Bits/(Pixel*Frame)                       : 0.230
Stream size                              : 593 MiB (86%)
Title                                    : Fun Size 2012 BRRip English
Language                                 : English
Default                                  : Yes
Forced                                   : No

Audio
ID                                       : 2
Format                                   : MPEG Audio
Format version                           : Version 1
Format profile                           : Layer 3
Mode                                     : Joint stereo
Mode extension                           : MS Stereo
Codec ID                                 : A_MPEG/L3
Codec ID/Hint                            : MP3
Duration                                 : 1h 26mn
Bit rate mode                            : Variable
Bit rate                                 : 130 Kbps
Minimum bit rate                         : 32.0 Kbps
Channel(s)                               : 2 channels
Sampling rate                            : 48.0 KHz
Compression mode                         : Lossy
Stream size                              : 80.3 MiB (12%)
Title                                    : Fun Size 2012 BRRip English
Language                                 : English
Default                                  : Yes
Forced                                   : No



Source:
credit to original movie ripper (Thanks)

IMDB Info:

Wren's Halloween plans go awry when she's made to babysit her brother, who disappears into a sea of trick-or-treaters. With her best friend and two nerds at her side, she needs to find her brother before her mom finds out he's missing.

Director: Josh Schwartz
Writer: Max Werner
Stars: Victoria Justice, Johnny Knoxville, Chelsea Handler 

Genres: Comedy
 
http://www.imdb.com/title/tt1663143/

Screen Shot:
 
image 
image 
image 
image		
Fun Size 2012 BRRip English.mkv 720.663 MB
Torrent downloaded from Accipiter torrents on DivXHunt.tk.txt 2.281 KB
Torrent Downloaded From Digtorrent.org.txt 449 B
Gathering some info...

Register and log in Isohunt and see no captcha anymore!

4000 symbols left
Hash A99E798DE4D4B56B38642589F05C571448B0C9B5

Related torrents for "Fun Size 2012 BRRip English"

Torrent search:

english 2012 bd