Dirty.Hearts.[Coracoes.Sujos].2011.DVDRip.AC3.HORiZON-ArtSubs

Size 1.468 GB   83 seeders     Added 2013-02-08 07:53:34

Stream torrent
Starting‥ You need BitLord! Get it from BitLord.com
To download or stream you need BitLord. Visit them at BitLord.com
Title: 
Dirty Hearts Aka Corações Sujos

Country:
Brazil/Japan, 2011

Language: 
Portuguese, Japanese

Subtitle: 
English, Portuguese

Director:
Vicente Amorim

Writers:
David França Mendes (screenplay), Fernando Morais (book)

Stars:
Tsuyoshi Ihara, Takako Tokiwa, Eiji Okuda 

Synopsis:
In 1945, Japan surrendered to the United States and the Second World War was over. Right? Wrong. For eighty percent of the Japanese community in Brazil, Japan had won the war and defeat was nothing more than American propaganda. The few immigrants that accepted the truth were persecuted. Some were hunted down and assassinated - by their own countrymen - causing the start of a new, private war. Dirty Hearts is a thriller and love story told by the wife of one of the fanatics dedicated to preach Japanese victory. Little by little, she watches her husband, a hard-working immigrant, become an assassin and their love story fade away. 

Imdb: 
http://www.imdb.com/title/tt1653653/?ref_=fn_al_tt_1

Trailer: 
http://www.coracoessujos.com.br/


Media Info:

General
Complete name                            : Dirty.Hearts.[Coracoes.Sujos].2011.DVDRip.AC3.HORiZON-ArtSubs
Format                                   : AVI
Format/Info                              : Audio Video Interleave
File size                                : 1.36 GiB
Duration                                 : 1h 47mn
Overall bit rate                         : 1 819 Kbps
Writing application                      : FairUse Wizard - http://fairusewizard.com
Writing library                          : The best and REALLY easy backup tool

Video
ID                                       : 0
Format                                   : MPEG-4 Visual
Format profile                           : Advanced Simple@L5
Format settings, BVOP                    : 1
Format settings, QPel                    : No
Format settings, GMC                     : No warppoints
Format settings, Matrix                  : Default (MPEG)
Muxing mode                              : Packed bitstream
Codec ID                                 : XVID
Codec ID/Hint                            : XviD
Duration                                 : 1h 47mn
Bit rate                                 : 1 361 Kbps
Width                                    : 704 pixels
Height                                   : 296 pixels
Display aspect ratio                     : 2.40:1
Frame rate                               : 23.976 fps
Color space                              : YUV
Chroma subsampling                       : 4:2:0
Bit depth                                : 8 bits
Scan type                                : Progressive
Compression mode                         : Lossy
Bits/(Pixel*Frame)                       : 0.272
Stream size                              : 1.02 GiB (75%)
Writing library                          : XviD 1.2.1 (UTC 2008-12-04)

Audio
ID                                       : 1
Format                                   : AC-3
Format/Info                              : Audio Coding 3
Mode extension                           : CM (complete main)
Format settings, Endianness              : Big
Codec ID                                 : 2000
Duration                                 : 1h 47mn
Bit rate mode                            : Constant
Bit rate                                 : 448 Kbps
Channel(s)                               : 6 channels
Channel positions                        : Front: L C R, Side: L R, LFE
Sampling rate                            : 48.0 KHz
Bit depth                                : 16 bits
Compression mode                         : Lossy
Stream size                              : 344 MiB (25%)
Alignment                                : Split accross interleaves
Interleave, duration                     : 42 ms (1.00 video frame)
Interleave, preload duration             : 500 ms

		
Dirty.Hearts.[Coracoes.Sujos].2011.DVDRip.AC3.HORiZON-ArtSubs.avi 1.465 GB
Dirty.Hearts.[Coracoes.Sujos].2011.DVDRip.AC3.HORiZON-ArtSubs.idx 43.092 KB
Dirty.Hearts.[Coracoes.Sujos].2011.DVDRip.AC3.HORiZON-ArtSubs.sub 3.529 MB
Gathering some info...

Register and log in Isohunt and see no captcha anymore!

4000 symbols left
Hash DA63963A45DB516EC33EF3303F1D3D26EBC2CA09