Rihanna - Where Have You Been [Music Video] 720p [Sbyky]

Size 75.145 MB   4 seeders     Added 2013-02-08 14:00:41

Stream torrent
Starting‥ You need BitLord! Get it from BitLord.com
To download or stream you need BitLord. Visit them at BitLord.com


General
Complete name                            : Rihanna - Where Have You Been [Music Video] 720p [Sbyky].mp4
Format                                   : MPEG-4
Format profile                           : Base Media / Version 2
Codec ID                                 : mp42
File size                                : 71.7 MiB
Duration                                 : 4mn 13s
Overall bit rate mode                    : Variable
Overall bit rate                         : 2 367 Kbps
Encoded date                             : UTC 2012-04-26 18:40:39
Tagged date                              : UTC 2012-04-26 18:40:39
gsst                                     : 0
gstd                                     : 254071
gssd                                     : BB6B02809HH1341481461331921

Video
ID                                       : 1
Format                                   : AVC
Format/Info                              : Advanced Video Codec
Format profile                           : High@L3.1
Format settings, CABAC                   : Yes
Format settings, ReFrames                : 1 frame
Format settings, GOP                     : M=1, N=30
Codec ID                                 : avc1
Codec ID/Info                            : Advanced Video Coding
Duration                                 : 4mn 13s
Bit rate                                 : 2 219 Kbps
Maximum bit rate                         : 7 004 Kbps
Width                                    : 1 280 pixels
Height                                   : 720 pixels
Display aspect ratio                     : 16:9
Frame rate mode                          : Constant
Frame rate                               : 23.976 fps
Color space                              : YUV
Chroma subsampling                       : 4:2:0
Bit depth                                : 8 bits
Scan type                                : Progressive
Bits/(Pixel*Frame)                       : 0.100
Stream size                              : 67.2 MiB (94%)
Tagged date                              : UTC 2012-04-26 18:40:40

Audio
ID                                       : 2
Format                                   : AAC
Format/Info                              : Advanced Audio Codec
Format profile                           : LC
Codec ID                                 : 40
Duration                                 : 4mn 13s
Bit rate mode                            : Variable
Bit rate                                 : 144 Kbps
Maximum bit rate                         : 183 Kbps
Channel(s)                               : 2 channels
Channel positions                        : Front: L R
Sampling rate                            : 44.1 KHz
Compression mode                         : Lossy
Stream size                              : 4.40 MiB (6%)
Title                                    : IsoMedia File Produced by Google, 5-11-2011
Encoded date                             : UTC 2012-04-26 18:40:40
Tagged date                              : UTC 2012-04-26 18:40:40

Shared By Sbyky
image
-------------------------------------Torrent downloaded from http://thepiratebay.se
Rihanna - Where Have You Been [Music Video] 720p [Sbyky].mp4 75.145 MB
Gathering some info...

Register and log in Isohunt and see no captcha anymore!

4000 symbols left
Hash EF40C2269928958368A18568DA66F3FE3FE3A52D

Related torrents for "Rihanna - Where Have You Been [Music Video] 720p [Sbyky]"

Torrent search:

hd