Pushystye Protiv Zubastyh 2012 D BDRip x264 potroks mkv

Size 1.569 GB   0 seeders     Added 2013-02-08 17:35:01

Stream torrent
Starting‥ You need BitLord! Get it from 1BitLord.com
To download or stream you need BitLord. Visit them at BitLord.com
Quality: BDRip-AVC [Blu-Ray]
Format: MKV
Video: H.264, 1024x552 (1,85:1), 23,976 fps, 1998 Kbps, 0.147 bit/pixel
Audio: 48 kHz, AC3 Dolby Digital, 3/2 (L, C,R, l, r) + LFE ch, ~448.00 kbps avg
General
Complete name                    : K:Pushystye.Protiv.Zubastyh.2012.D.BDRip.x264.potroks.mkv
Format                           : Matroska
File size                        : 1.46 GiB
Duration                         : 1h 25mn
Overall bit rate                 : 2 445 Kbps
Movie name                       : -=POTROKS=-
Encoded date                     : UTC 2012-11-28 17:07:55
Writing application              : mkvmerge v5.7.0 (The Whirlwind) built on Jul  8 2012 20:08:51
Writing library                  : libebml v1.2.3 + libmatroska v1.3.0
Video
ID                               : 1
Format                           : AVC
Format/Info                      : Advanced Video Codec
Format profile                   : High@L4.1
Format settings, CABAC           : Yes
Format settings, ReFrames        : 12 frames
Muxing mode                      : Container profile=Unknown@4.1
Codec ID                         : V_MPEG4/ISO/AVC
Duration                         : 1h 25mn
Bit rate                         : 1 948 Kbps
Nominal bit rate                 : 1 998 Kbps
Width                            : 1 024 pixels
Height                           : 552 pixels
Display aspect ratio             : 1.855
Original display aspect ratio    : 1.862
Frame rate mode                  : Variable
Frame rate                       : 23.976 fps
Resolution                       : 8 bits
Colorimetry                      : 4:2:0
Scan type                        : Progressive
Bits/(Pixel*Frame)               : 0.144
Stream size                      : 1.16 GiB (80%)
Audio
ID                               : 2
Format                           : AC-3
Format/Info                      : Audio Coding 3
Codec ID                         : A_AC3
Duration                         : 1h 25mn
Bit rate mode                    : Constant
Bit rate                         : 448 Kbps
Channel(s)                       : 6 channels
Channel positions                : Front: L C R, Surround: L R, LFE
Sampling rate                    : 48.0 KHz
Video delay                      : 91ms
Stream size                      : 274 MiB (18%)
Title                            : Dub | DD 5.1 @ 448 kbps
Language                         : Russian
Pushystye.Protiv.Zubastyh.2012.D.BDRip.x264.potroks.mkv 1.569 GB
Gathering some info...

Register and log in Isohunt and see no captcha anymore!

4000 symbols left
Hash 61FFEA787A0DB089BE9360D1CE81FDBB1EF65D54