imdb
rating

6.2
Akaash Vani

Akaash Vani (2013)

Full description

Akaash Vani (2013) - Hindi - Xvid - DvdScr Rip - AC3 -[TDT]@Mastitorrents

Size 742.901 MB   28 seeders     Added 2013-02-08 20:20:52

Stream torrent
Starting‥ You need BitLord! Get it from BitLord.com
To download or stream you need BitLord. Visit them at BitLord.com
mastitorrents.com
  
http://mastitorrents.com/forums/index.php
  
http://thepiratebay.se/user/HDvideos/0/7

Akaash Vani (2013) - Hindi - Xvid - DvdScr Rip - AC3 -[TDT]

General
Complete name : Akaash Vani (2013) - Xvid - DvdScr Rip - AC3 -[TDT].avi
IMDB : Akaash Vani (2013) - IMDb
Format : AVI
File size : 699 MiB
Duration : 2h 14mn
Overall bit rate : 727 Kbps
Source : DvdSCR @ obaid2k13
Ripper : KingFisheR [~TDT~].

Video
Codec ID : XVID
Duration : 2h 14mn
Bit rate : 621 Kbps
Width : 656 pixels
Height : 272 pixels
Display aspect ratio : 2.40:1
Frame rate : 23.976 fps
Bits/(Pixel*Frame) : 0.145
Stream size : 598 MiB (86%)

Audio

Format : AC-3
Duration : 2h 14mn
Bit rate : 96.0 Kbps
Channel(s) : 2 channels
Channel positions : Front: L R
Sampling rate : 48.0 KHz
Stream size : 92.3 MiB (13%)

Screens: 
image 
image 
image 
image 
image 
image 
image 
image 
image 
image 
image 
image 
image 
image 
image
		
Akaash Vani (2013) - sample -[TDT].avi 9.769 MB
Akaash Vani (2013) - Xvid - DvdScr Rip - AC3 -[TDT].avi 733.129 MB
Movie Info.nfo 2.798 KB
Gathering some info...

Register and log in Isohunt and see no captcha anymore!

4000 symbols left
Hash FFB152B007D201DC71BFD876075C8200E7666968

Related torrents for "Akaash Vani (2013) - Hindi - Xvid - DvdScr Rip - AC3 -[TDT]@Mastitorrents"

Torrent search:

screener hindi 2013