imdb
rating

5.3
Dark Country

Dark Country (2009)

Horror, Thriller

Full description
quality   dvdrip hd bd x264 dvdr

Dark Country 3D (2009)-alE13

Size 3.747 GB   5 seeders     Added 2013-02-08 20:21:49

Stream torrent
Starting‥ You need BitLord! Get it from BitLord.com
To download or stream you need BitLord. Visit them at BitLord.com
[center][img]image[/img]

[i][b]Film w Wersji 3D H-O/U[/b][/i]

[i][b]The file containing - sample!!!
Plik zawiera - sample !!![/b][/i]

produkcja: USA
gatunek: Thriller
data premiery: 2009-10-06 (Świat)
reżyseria Thomas Jane
scenariusz Tab Murphy
zdjęcia Geoff Boyle
czas trwania: 88

Opis:

A couple en route from Las Vegas are forced to deal with a body out in the desert 
making their honeymoon one hellish ride. 

Richard i Gina są młodzi, zakochani i mają szalone pomysły, Właśnie wracają 
z Las Vegas, mknąc nocą starym samochodem przez pustynię. W pewnej chwili 
potrącają mężczyznę. Gina sugeruje, by go zostawić, ale Richard zabiera rannego 
i rusza po pomoc. Gdy droga się kończy, nie wiedzą, gdzie dalej jechać. Tymczasem 
tajemniczy mężczyzna z tylnego siedzenia zamienia ich podróż w koszmar. 

[img]image[/img]
[img]image[/img]
[img]image[/img]

Obsada:

Thomas Jane ... Dick
Lauren German ... Gina
Ron Perlman ... Deputy Thompson
Chris Browning ... Stranger
Con Schell ... Bloodyface Double

Dane Techniczne:

Dark Country 3D (2009)-alE13.mkv
Format : Matroska
Format version : Version 2
File size : 3.45 GiB
Duration : 1h 28mn
Overall bit rate : 5 608 Kbps
Movie name : Dark Country 3D (2009)-alE13
Encoded date : UTC 2013-02-07 10:31:02
Writing application : mkvmerge v5.8.0 
Writing library : Lavf52.94.0

Video
ID : 1
Format : AVC
Format/Info : Advanced Video Codec
Format profile : Main@L4.0
Format settings, CABAC : Yes
Format settings, ReFrames : 2 frames
Muxing mode : Header stripping
Codec ID : V_MPEG4/ISO/AVC
Duration : 1h 28mn
Bit rate : 5 000 Kbps
Width : 1 920 pixels
Height : 1 080 pixels
Display aspect ratio : 16:9
Frame rate mode : Constant
Frame rate : 24.000 fps
Color space : YUV
Chroma subsampling : 4:2:0
Bit depth : 8 bits
Scan type : Progressive
Bits/(Pixel*Frame) : 0.100
Stream size : 2.99 GiB (87%)
Writing library : x264 core 112 r1834 a51816a

Audio
ID : 2
Format : AC-3
Format/Info : Audio Coding 3
Mode extension : CM (complete main)
Format settings, Endianness : Big
Muxing mode : Header stripping
Codec ID : A_AC3
Duration : 1h 28mn
Bit rate mode : Constant
Bit rate : 640 Kbps
Channel(s) : 6 channels
Channel positions : Front: L C R, Side: L R, LFE
Sampling rate : 48.0 KHz
Bit depth : 16 bits
Compression mode : Lossy
Stream size : 404 MiB (11%)


Text
ID : 3
Format : VobSub
Muxing mode : zlib
Codec ID : S_VOBSUB
Codec ID/Info : The same subtitle format used on DVDs
Language : Polish[/center]
1.jpg 595.752 KB
2.jpg 129.633 KB
Dark Country 3D (2009)-alE13.mkv 3.708 GB
Gathering some info...

Register and log in Isohunt and see no captcha anymore!

4000 symbols left
Hash 29091460F766306CD000C2808EA923A36D4883D3

Related torrents for "Dark Country 3D (2009)-alE13"

Torrent search:

2009