imdb
rating

7.1
Battlestar Galactica: Blood & Chrome

Battlestar Galactica: Blood & Chrome (2012)

Drama, Science Fiction

Full description
quality   x264 hd web-rip web-dl bd fullhd

Battlestar Galactica Blood and Chrome 2012 BRRip XviD Ac3 Feel-Free

Size 1.5 GB   6 seeders     Added 2013-02-08 22:41:43

Stream torrent
Starting‥ You need BitLord! Get it from BitLord.com
10
To download or stream you need BitLord. Visit them at BitLord.com
 
http://www.imdb.com/title/tt1704292/

Format : AVI
Format/Info : Audio Video Interleave
File size : 1.40 GiB
Duration : 1h 33mn
Overall bit rate : 2 136 Kbps
Writing application : VirtualDubMod 1.5.10.2 (build 2540/release)
Writing library : VirtualDubMod build 2540/release

Video
ID : 0
Format : MPEG-4 Visual
Format profile : Advanced Simple@L5
Format settings, BVOP : 1
Format settings, QPel : No
Format settings, GMC : No warppoints
Format settings, Matrix : Default (H.263)
Codec ID : XVID
Codec ID/Hint : XviD
Duration : 1h 33mn
Bit rate : 1 743 Kbps
Width : 640 pixels
Height : 360 pixels
Display aspect ratio : 16:9
Frame rate : 23.976 fps
Color space : YUV
Chroma subsampling : 4:2:0
Bit depth : 8 bits
Scan type : Progressive
Compression mode : Lossy
Bits/(Pixel*Frame) : 0.316
Stream size : 1.14 GiB (82%)
Writing library : XviD 1.2.1 (UTC 2008-12-04)

Audio
ID : 1
Format : AC-3
Format/Info : Audio Coding 3
Mode extension : CM (complete main)
Codec ID : 2000
Duration : 1h 33mn
Bit rate mode : Constant
Bit rate : 384 Kbps
Channel(s) : 6 channels
Channel positions : Front: L C R, Side: L R, LFE
Sampling rate : 48.0 KHz
Bit depth : 16 bits
Compression mode : Lossy
Stream size : 257 MiB (18%)
Alignment : Aligned on interleaves
Interleave, duration : 42 ms (1.00 video frame)
Interleave, preload duration : 512 ms
 
image 
image 
image

		
Battlestar.Galactica.Blood.and.Chrome.2012.BRRip.XviD.Ac3.Feel-Free.avi 1.499 GB
dvpzrxm3idprtr1l.jpg 98.708 KB
Torrent downloaded from Extratorrent.com.txt 171 B
Gathering some info...

Register and log in Isohunt and see no captcha anymore!

4000 symbols left
Hash B0AECBCC56043844A8EE07484C9E4D43E30F4B6E

Related torrents for "Battlestar Galactica Blood and Chrome 2012 BRRip XviD Ac3 Feel-Free"

Torrent search:

2012 bd