imdb
rating

 
Pitch

Pitch (2016)

Drama

Full description

Pitch Perfect (HD 720p).m4v

Size 3.451 GB   0 seeders     Added 2013-02-09 00:59:22

Stream torrent
Starting‥ You need BitLord! Get it from 1BitLord.com
To download or stream you need BitLord. Visit them at BitLord.com
General
Complete name                            : Pitch Perfect (HD 720p).m4v
Format                                   : MPEG-4
Format profile                           : Base Media / Version 2
Codec ID                                 : mp42
File size                                : 3.21 GiB
Duration                                 : 1h 52mn
Overall bit rate mode                    : Variable
Overall bit rate                         : 4 104 Kbps
Movie name                               : Pitch Perfect
Performer                                : Alexis Knapp, Anna Kendrick, Brittany Snow, Christopher Mintz-Plasse, Rebel Wilson, Adam DeVine, Anna Camp, Freddie Stroma, Jacob Wysocki, John Michael Higgins, Elizabeth Banks, Skylar Astin, Ben Platt, Ester Dean, Hana Mae Lee, Kelley Jakle, Wanetah Walmsley, Shelley Regner, Caroline Fourmy, Nicole Lovince, Utkarsh Ambudkar, Michael Viruet, David Del Rio, John Benjamin Hickey, Jinhee Joung, Joe Lo Truglio, Har Mar Superstar, Jason Jones, Donald Faison
Genre                                    : Comedy, Music
Recorded date                            : 2012-09-28
Encoded date                             : UTC 2012-12-27 13:21:44
Tagged date                              : UTC 2012-12-29 21:44:09
Writing application                      : HandBrake 5106svn 2012122501
Cover                                    : Yes
desc                                     : A comedy set in the middle of a war between rival a cappella groups and centered on a rebellious girl who joins one of the groups as an escape from her unhappy life at school.

Video #1
ID                                       : 1
Format                                   : AVC
Format/Info                              : Advanced Video Codec
Format profile                           : High@L3.1
Format settings, CABAC                   : Yes
Format settings, ReFrames                : 4 frames
Codec ID                                 : avc1
Codec ID/Info                            : Advanced Video Coding
Duration                                 : 1h 52mn
Bit rate mode                            : Variable
Bit rate                                 : 3 260 Kbps
Width                                    : 1 280 pixels
Height                                   : 688 pixels
Display aspect ratio                     : 1.85:1
Frame rate mode                          : Variable
Frame rate                               : 23.976 fps
Minimum frame rate                       : 23.810 fps
Maximum frame rate                       : 29.970 fps
Color space                              : YUV
Chroma subsampling                       : 4:2:0
Bit depth                                : 8 bits
Scan type                                : Progressive
Bits/(Pixel*Frame)                       : 0.154
Stream size                              : 2.55 GiB (79%)
Writing library                          : x264 core 128
Encoding settings                        : cabac=1 / ref=4 / deblock=1:0:0 / analyse=0x3:0x133 / me=umh / subme=10 / psy=1 / psy_rd=1.00:0.15 / mixed_ref=1 / me_range=32 / chroma_me=1 / trellis=2 / 8x8dct=1 / cqm=0 / deadzone=21,11 / fast_pskip=1 / chroma_qp_offset=-3 / threads=12 / lookahead_threads=2 / sliced_threads=0 / nr=0 / decimate=1 / interlaced=0 / bluray_compat=0 / constrained_intra=0 / bframes=4 / b_pyramid=2 / b_adapt=2 / b_bias=0 / direct=3 / weightb=1 / open_gop=0 / weightp=2 / keyint=300 / keyint_min=30 / scenecut=40 / intra_refresh=0 / rc_lookahead=60 / rc=crf / mbtree=1 / crf=18.0 / qcomp=0.60 / qpmin=4 / qpmax=69 / qpstep=4 / ip_ratio=1.40 / aq=1:1.00
Language                                 : English
Encoded date                             : UTC 2012-12-27 13:21:44
Tagged date                              : UTC 2012-12-27 16:15:26
Color primaries                          : BT.709
Transfer characteristics                 : BT.709
Matrix coefficients                      : BT.709

Audio #1
ID                                       : 2
Format                                   : AAC
Format/Info                              : Advanced Audio Codec
Format profile                           : LC
Codec ID                                 : 40
Duration                                 : 1h 52mn
Bit rate mode                            : Variable
Bit rate                                 : 192 Kbps
Maximum bit rate                         : 303 Kbps
Channel(s)                               : 2 channels
Channel positions                        : Front: L R
Sampling rate                            : 48.0 KHz
Compression mode                         : Lossy
Delay relative to video                  : 83ms
Stream size                              : 156 MiB (5%)
Language                                 : English
Encoded date                             : UTC 2012-12-27 13:21:44
Tagged date                              : UTC 2012-12-27 16:15:26

Audio #2
ID                                       : 3
Format                                   : AC-3
Format/Info                              : Audio Coding 3
Mode extension                           : CM (complete main)
Format settings, Endianness              : Big
Codec ID                                 : ac-3
Duration                                 : 1h 52mn
Bit rate mode                            : Constant
Bit rate                                 : 640 Kbps
Channel(s)                               : 6 channels
Channel positions                        : Front: L C R, Side: L R, LFE
Sampling rate                            : 48.0 KHz
Bit depth                                : 16 bits
Compression mode                         : Lossy
Delay relative to video                  : 83ms
Stream size                              : 513 MiB (16%)
Language                                 : English
Encoded date                             : UTC 2012-12-27 13:21:44
Tagged date                              : UTC 2012-12-27 16:15:26-------------------------------------Torrent downloaded from http://thepiratebay.se
Pitch Perfect (HD 720p).m4v 3.451 GB
Gathering some info...

Register and log in Isohunt and see no captcha anymore!

4000 symbols left
Hash 3D811CAFA78BACF205C911084C68982DCB4F632A

Related torrents for "Pitch Perfect (HD 720p).m4v"

Torrent search:

hd