imdb
rating

7.7
Ray

Ray (2004)

Drama

Full description
quality   dvdr x264 fullhd dvdrip bd

Ray (2004) 720p MKV x264 AC3 BRrip [Pioneer]

Size 1.671 GB   33 seeders     Added 2013-02-09 04:41:07

Stream torrent
Starting‥ You need BitLord! Get it from BitLord.com
To download or stream you need BitLord. Visit them at BitLord.com
[IMG]image[/IMG]


Born in a poor town in Georgia, Ray Charles went blind at the age of seven shortly after witnessing his younger brother's accidental death. Inspired by a fiercely independent mother who insisted he make his own way in the world, Charles found his calling and his gift behind a piano keyboard. Touring across the Southern musical circuit, the soulful singer gained a reputation and then exploded with worldwide fame when he pioneered incorporating gospel, country, jazz and orchestral influences into his inimitable style. As he revolutionized the way people appreciated music, he simultaneously fought segregation in the very clubs that launched him and championed artists' rights within the corporate music business.


Starring: Michael Arata, Jamie Foxx, Kerry Washington, Regina King, Curtis Armstrong
Director: Taylor Hackford



http://www.imdb.com/title/tt0350258/


http://www.youtube.com/watch?v=w8lAgwrxndk


[IMG]image[/IMG]
[IMG]image[/IMG]
[IMG]image[/IMG]
[IMG]image[/IMG]
[IMG]image[/IMG]
[IMG]image[/IMG]


General
Unique ID: 245093156097362364003836551963331849133 (0xB863398FB81307B3B54DE7D22638EBAD)
Complete name: E:\Ray (2004) 720p MKV x264 AC3 BRrip [Pioneer].mkv
Format: Matroska
Format version: Version 4 / Version 2
File size: 1.56 GiB
Duration: 2h 32mn
Overall bit rate: 1 461 Kbps
Encoded date: UTC 2013-02-03 22:06:13
Writing application: mkvmerge v6.0.0 ('Coming Up For Air') built on Jan 20 2013 09:52:00
Writing library: libebml v1.3.0 + libmatroska v1.4.0

Video
ID: 2
Format: AVC
Format/Info: Advanced Video Codec
Format profile: High@L3.1
Format settings, CABAC: Yes
Format settings, ReFrames: 4 frames
Codec ID: V_MPEG4/ISO/AVC
Duration: 2h 32mn
Bit rate: 1 300 Kbps
Width: 1 280 pixels
Height: 688 pixels
Display aspect ratio: 1.85:1
Frame rate mode: Constant
Frame rate: 23.976 fps
Color space: YUV
Chroma subsampling: 4:2:0
Bit depth: 8 bits
Scan type: Progressive
Bits/(Pixel*Frame): 0.062
Stream size: 1.35 GiB (87%)
Writing library: x264 core 120
Language: English
Default: Yes
Forced: No
Color primaries: BT.709
Transfer characteristics: BT.709
Matrix coefficients: BT.709

Audio
ID: 1
Format: AC-3
Format/Info: Audio Coding 3
Format profile: Dolby Digital
Mode extension: CM (complete main)
Format settings, Endianness: Big
Codec ID: A_AC3
Duration: 2h 32mn
Bit rate mode: Constant
Bit rate: 160 Kbps
Channel(s): 2 channels
Channel positions: Front: L R
Sampling rate: 48.0 KHz
Bit depth: 16 bits
Compression mode: Lossy
Stream size: 174 MiB (11%)
Language: English
Default: Yes
Forced: No
Ray (2004) 720p MKV x264 AC3 BRrip [Pioneer].mkv 1.671 GB
Gathering some info...

Register and log in Isohunt and see no captcha anymore!

4000 symbols left
Hash D54721EDE59B031F77CDECF9FE7BCD6DE529695D

Related torrents for "Ray (2004) 720p MKV x264 AC3 BRrip [Pioneer]"

Torrent search:

2004 x264 hd bd