TPB AFK 2013 720p h264-SimonKlose-Alex-MOD mp4

Size 583.296 MB   0 seeders     Added 2013-02-09 20:35:16

Stream torrent
Starting‥ You need BitLord! Get it from BitLord.com
To download or stream you need BitLord. Visit them at BitLord.com
Rencode of TPB-AFK

Video
Format                           : AVC
Format/Info                      : Advanced Video Codec
Format profile                   : High@L2.1
Format settings, CABAC           : No
Format settings, ReFrames        : 1 frame
Codec ID                         : avc1
Codec ID/Info                    : Advanced Video Coding
Duration                         : 1h 22mn
Bit rate mode                    : Variable
Bit rate                         : 830 Kbps
Maximum bit rate                 : 6 636 Kbps
Width                            : 1 280 pixels
Height                           : 720 pixels
Display aspect ratio             : 16:9
Frame rate mode                  : Constant
Frame rate                       : 25.000 fps
Color space                      : YUV
Chroma subsampling               : 4:2:0
Bit depth                        : 8 bits
Scan type                        : Progressive
Bits/(Pixel*Frame)               : 0.036
Stream size                      : 481 MiB (87%)
Writing library                  : x264 core 116 r2019 9cc407d

Audio
ID                               : 2
Format                           : AAC
Format/Info                      : Advanced Audio Codec
Format profile                   : LC
Codec ID                         : 40
Duration                         : 1h 22mn
Bit rate mode                    : Variable
Bit rate                         : 125 Kbps
Maximum bit rate                 : 218 Kbps
Channel(s)                       : 2 channels
Channel positions                : Front: L R
Sampling rate                    : 44.1 KHz
Compression mode                 : Lossy
Stream size                      : 73.7 MiB (13%)



		
TPB.AFK.2013.720p.h264-SimonKlose-Alex-MOD.mp4 583.296 MB
Gathering some info...

Register and log in Isohunt and see no captcha anymore!

4000 symbols left
Hash F4AC000558F511CA880A8E7D278FC1A11281843A