Six Nations Rugby

Six Nations Rugby (2014)

Full description

Six.Nations.Rugby.Union-Scotland.v.Italy-2013.02.09.720p.x264

Size 2.821 GB   2 seeders     Added 2013-02-10 06:59:11

Stream torrent
Starting‥ You need BitLord! Get it from 1BitLord.com
To download or stream you need BitLord. Visit them at BitLord.com
SPORT: Six Nations Rugby Union - Scotland v Italy
On: BBC 1 HD 
Date: Saturday 9th February 2013 
KO Time: 14:30 

Coverage from Edinburgh, where Scotland host Italy in the second weekend of the 2013 Six Nations. In recent years, these two teams have battled it out to avoid the dreaded wooden spoon, given to the team that finishes last in the tournament. Murrayfield is the only away ground where Italy have enjoyed a Six Nations victory, so no doubt they will be looking to draw on that famous 37-17 victory six years ago. But having lost four of their last six matches against the Azzurri in the Six Nations, Scotland will be determined not to suffer another upset on home soil. Match commentary comes from Alastair Eykyn and Lawrence Dallaglio.


General
Complete name: 2013.02.09.6N.Scotland.v.Italy.720p.x264.mp4
Format: MPEG-4
Format profile: Base Media
Codec ID: isom
File size: 2.63 GiB
Duration: 1h 46mn
Overall bit rate mode: Variable
Overall bit rate: 3 525 Kbps

Video
ID: 1
Format: AVC
Format/Info: Advanced Video Codec
Format profile: High@L4.1
Format settings, CABAC: Yes
Format settings, ReFrames: 5 frames
Codec ID: avc1
Codec ID/Info: Advanced Video Coding
Duration: 1h 46mn
Bit rate: 3 397 Kbps
Maximum bit rate: 9 695 Kbps
Width: 1 280 pixels
Height: 720 pixels
Display aspect ratio: 16:9
Frame rate mode: Constant
Frame rate: 25.000 fps
Color space: YUV
Chroma subsampling: 4:2:0
Bit depth: 8 bits
Scan type: Progressive
Bits/(Pixel*Frame): 0.147
Stream size: 2.53 GiB (96%)
Writing library: x264 core 129 r2245 bc13772

Audio
ID: 2
Format: AAC
Format/Info: Advanced Audio Codec
Format profile: LC
Codec ID: 40
Duration: 1h 46mn
Bit rate mode: Variable
Bit rate: 124 Kbps
Maximum bit rate: 130 Kbps
Channel(s): 2 channels
Channel positions: Front: L R
Sampling rate: 48.0 KHz
Compression mode: Lossy
Delay relative to video: 80ms
Stream size: 94.5 MiB (4%)
Language: English-------------------------------------Torrent downloaded from http://thepiratebay.se
2013.02.09.6N.Scotland.v.Italy.720p.x264.mp4 2.821 GB
2013.02.09.6N.Scotland.v.Italy.720p.x264.nfo 1.962 KB
Gathering some info...

Register and log in Isohunt and see no captcha anymore!

4000 symbols left
Hash 7465B34E364CB946BC4D735569B26562D55B8B06

Related torrents for "Six.Nations.Rugby.Union-Scotland.v.Italy-2013.02.09.720p.x264"

Torrent search:

x264 hd 2013