imdb
rating

7.3
Talaash

Talaash (2012)

Crime, Drama, Musical, Romance, Thriller

Full description

Talaash (2012) Non-Retail DVDRip XviD AC3 ESubs - (DUS)

Size 1.391 GB   15 seeders     Added 2013-02-10 11:35:07

Stream torrent
Starting‥ You need BitLord! Get it from BitLord.com
10
To download or stream you need BitLord. Visit them at BitLord.com
mastitorrents.com
  
http://mastitorrents.com/forums/index.php
  
http://thepiratebay.se/user/HDvideos/0/7

Talaash (2012) Hindi Non-Retail DVDRip XviD AC3 ESubs - (DUS)

Source : ICT

General
Complete name                            : H:DownloadsTalaash (2012) Non-Retail DVDRip XviD AC3 ESubs - (DUS)Talaash (2012) Non Retail DVDRip XviD AC3 ESubs - (DUS).avi
Format                                   : AVI
Format/Info                              : Audio Video Interleave
File size                                : 1.29 GiB
Duration                                 : 2h 13mn
Overall bit rate                         : 1 387 Kbps

Video
ID                                       : 0
Format                                   : MPEG-4 Visual
Format profile                           : Advanced Simple@L5
Format settings, BVOP                    : 2
Format settings, QPel                    : No
Format settings, GMC                     : No warppoints
Format settings, Matrix                  : Default (H.263)
Codec ID                                 : XVID
Codec ID/Hint                            : XviD
Duration                                 : 2h 13mn
Bit rate                                 : 1 251 Kbps
Width                                    : 672 pixels
Height                                   : 288 pixels
Display aspect ratio                     : 2.35:1
Frame rate                               : 25.000 fps
Color space                              : YUV
Chroma subsampling                       : 4:2:0
Bit depth                                : 8 bits
Scan type                                : Progressive
Compression mode                         : Lossy
Bits/(Pixel*Frame)                       : 0.258
Stream size                              : 1.16 GiB (90%)
Writing library                          : XviD 1.2.1 (UTC 2008-12-04)

Audio
ID                                       : 1
Format                                   : AC-3
Format/Info                              : Audio Coding 3
Mode extension                           : CM (complete main)
Format settings, Endianness              : Big
Codec ID                                 : 2000
Duration                                 : 2h 13mn
Bit rate mode                            : Constant
Bit rate                                 : 128 Kbps
Channel(s)                               : 2 channels
Channel positions                        : Front: L R
Sampling rate                            : 48.0 KHz
Bit depth                                : 16 bits
Compression mode                         : Lossy
Stream size                              : 122 MiB (9%)
Alignment                                : Aligned on interleaves
Interleave, duration                     : 64 ms (1.60 video frames)
Interleave, preload duration             : 192 ms
Title                                    : VTS_01_1 T80 2_0ch 448Kbps DELAY 0ms_new

Screens: 
image 
image 
image 
image 
image 
image 
image 
image 
image 
image 
image 
image 
image		
Talaash (2012) Non Retail DVDRip XviD AC3 ESubs - (DUS).avi 1.384 GB
Talaash (2012) Non Retail DVDRip XviD AC3 ESubs - (DUS).idx 116.425 KB
Talaash (2012) Non Retail DVDRip XviD AC3 ESubs - (DUS).sub 7.152 MB
Gathering some info...

Register and log in Isohunt and see no captcha anymore!

4000 symbols left
Hash 97F0B12550949B7099BE5987B76D2D9BFAA08381

Related torrents for "Talaash (2012) Non-Retail DVDRip XviD AC3 ESubs - (DUS)"

Torrent search:

dvdrip 2012