Desh Re Joya Dada Pardesh Joya 1990 X264 AAC 1CD DvDRip RRG DADA DBBIANS Com mp4

Size 760.889 MB   0 seeders     Added 2013-02-10 18:37:07

Stream torrent
Starting‚Ä• You need BitLord! Get it from BitLord.com
10
To download or stream you need BitLord. Visit them at BitLord.com
Covers - [url]http://www.pixroute.com/y083ybq4yn8k[/url]

Screens - [url]http://pixroute.com/6knju9twjt31[/url]

- INfo -




Desh.Re.Joya.Dada.Pardesh.Joya.1990.X264.AAC.1CD.DvDRip.RRG.DADA.mp4

Format : MPEG-4
Format profile : Base Media / Version 2
Codec ID : mp42
File size : 726 MiB
Duration : 2h 47mn
Overall bit rate : 605 Kbps

Video
ID : 1
Format : AVC
Format/Info : Advanced Video Codec
Format profile : Baseline@L2.1
Format settings, CABAC : No
Format settings, ReFrames : 1 frame
Codec ID : avc1
Codec ID/Info : Advanced Video Coding
Duration : 2h 47mn
Bit rate mode : Variable
Bit rate : 505 Kbps
Maximum bit rate : 1 525 Kbps
Width : 498 pixels
Height : 360 pixels
Display aspect ratio : 1.383
Frame rate mode : Constant
Frame rate : 25.000 fps
Color space : YUV
Chroma subsampling : 40
Bit depth : 8 bits
Scan type : Progressive
Bits/(Pixel*Frame) : 0.113
Stream size : 605 MiB (83%)


Audio

ID : 2
Format : AAC
Format/Info : Advanced Audio Codec
Format version : Version 4
Format profile : LC
Format settings, SBR : No
Codec ID : 40
Duration : 2h 47mn
Bit rate mode : Variable
Bit rate : 96.0 Kbps
Maximum bit rate : 132 Kbps
Channel(s) : 2 channels
Channel positions : Front: L R
Sampling rate : 44.1 KHz
Stream size : 115 MiB (16%)



		
Desh.Re.Joya.Dada.Pardesh.Joya.1990.X264.AAC.1CD.DvDRip.RRG.DADA.DBBIANS.Com.mp4 760.889 MB
Gathering some info...

Register and log in Isohunt and see no captcha anymore!

4000 symbols left
Hash CCAB18DC608ABBC9DD688A103D6C680C45E09034