Caught On Tape 2013 DVDRip XviD PTpOWeR

Size 738.17 MB   14 seeders     Added 2013-02-10 18:41:00

Stream torrent
Starting‥ You need BitLord! Get it from BitLord.com
To download or stream you need BitLord. Visit them at BitLord.com
[img]image[/img]


http://www.imdb.com/title/tt2633114/


A young boy uses his video camera that he got for his birthday to spy on his mother's boyfriend, who's plotting a crime. Mix in a nosy neighbor, jealous fiancé, shady maintenance man, a UPS... 



Director:
 Sticky Fingaz 

Writers:
 Sticky Fingaz, Kevin Johnson

Stars:
 Cedric the Entertainer, Sticky Fingaz, Vivica A. Fox

Genres:
 Crime | Musical 

Country:
USA

Language:
English 


Format : AVI
Format/Info : Audio Video Interleave
File size : 704 MiB
Duration : 1h 9mn
Overall bit rate : 1 414 Kbps

Video
ID : 0
Format : MPEG-4 Visual
Format profile : Simple@L3
Format settings, BVOP : No
Format settings, QPel : No
Format settings, GMC : No warppoints
Format settings, Matrix : Default (H.263)
Codec ID : XVID
Codec ID/Hint : XviD
Duration : 1h 9mn
Source duration : 1h 9mn
Bit rate : 1 273 Kbps
Width : 624 pixels
Height : 352 pixels
Display aspect ratio : 16:9
Frame rate : 23.976 fps
Color space : YUV
Chroma subsampling : 4:2:0
Bit depth : 8 bits
Scan type : Progressive
Compression mode : Lossy
Bits/(Pixel*Frame) : 0.242
Stream size : 634 MiB (90%)
Writing library : XviD 1.1.2 (UTC 2006-11-01)

Audio
ID : 1
Format : MPEG Audio
Format version : Version 1
Format profile : Layer 3
Mode : Joint stereo
Codec ID : 55
Codec ID/Hint : MP3
Duration : 1h 9mn
Bit rate mode : Constant
Bit rate : 128 Kbps
Channel(s) : 2 channels
Sampling rate : 48.0 KHz
Compression mode : Lossy
Stream size : 63.7 MiB (9%)
Alignment : Split accross interleaves
Interleave, duration : 24 ms (0.58 video frame)
Writing library : LAME3.98




[img]image[/img]

[img]image[/img]
[img]image[/img]
[img]image[/img]
[img]image[/img]
Caught.On.Tape.2013.DVDRip.XviD-PTpOWeR.avi 738.122 MB
Caught.On.Tape.2013.DVDRip.XviD-PTpOWeR.nfo 2.526 KB
caughtontape.jpg 45.584 KB
Gathering some info...

Register and log in Isohunt and see no captcha anymore!

4000 symbols left
Hash 457D1381660F4B2C19C1DC91D8C000EBAC4FE189

Related torrents for "Caught On Tape 2013 DVDRip XviD PTpOWeR"

Torrent search:

dvdrip 2013