Raja Gopichand 1979 X264 AAC 1CD DvDRip RRG DADA DBBIANS Com mp4

Size 424.654 MB   0 seeders     Added 2013-02-10 19:35:26

Stream torrent
Starting‚Ä• You need BitLord! Get it from 1BitLord.com
To download or stream you need BitLord. Visit them at BitLord.com
Covers -  http://www.pixroute.com/jgs9hzijnaof

Screens - http://pixroute.com/m8m94p51nb9f

- INfo -




Genera

Complete Name :  Raja.Gopichand.1979.X264.AAC.1CD.DvDRip.RRG.DADA..mp4
Format : MPEG-4
Format profile : Base Media / Version 2
Codec ID : mp42
File size : 405 MiB
Duration : 2h 13mn
Overall bit rate : 425 Kbps


Video
ID : 1
Format : AVC
Format/Info : Advanced Video Codec
Format profile : Baseline@L2.1
Format settings, CABAC : No
Format settings, ReFrames : 1 frame
Codec ID : avc1
Codec ID/Info : Advanced Video Coding
Duration : 2h 13mn
Bit rate mode : Variable
Bit rate : 325 Kbps
Maximum bit rate : 962 Kbps
Width : 384 pixels
Height : 288 pixels
Display aspect ratio : 4:3
Frame rate mode : Constant
Frame rate : 25.000 fps
Color space : YUV
Chroma subsampling : 40
Bit depth : 8 bits
Scan type : Progressive
Bits/(Pixel*Frame) : 0.118
Stream size : 309 MiB (76%)


Audio
ID : 2
Format : AAC
Format/Info : Advanced Audio Codec
Format version : Version 4
Format profile : LC
Format settings, SBR : No
Codec ID : 40
Duration : 2h 13mn
Bit rate mode : Variable
Bit rate : 96.0 Kbps
Maximum bit rate : 127 Kbps
Channel(s) : 2 channels
Channel positions : Front: L R
Sampling rate : 44.1 KHz
Stream size : 91.4 MiB (23%)

		
Raja.Gopichand.1979.X264.AAC.1CD.DvDRip.RRG.DADA.DBBIANS.Com.mp4 424.654 MB
Gathering some info...

Register and log in Isohunt and see no captcha anymore!

4000 symbols left
Hash 34ECA0313796FB538B469484383837CA6445FB9D