imdb
rating

7.5
Gallipoli

Gallipoli (1981)

Drama, History

Full description

Gallipoli (1981)[BDRip.x264.AC3][Napisy PL-Eng][Eng]

Size 2.452 GB   0 seeders     Added 2013-02-10 21:21:39

Stream torrent
Starting‥ You need BitLord! Get it from BitLord.com
To download or stream you need BitLord. Visit them at BitLord.com
[center][img]image[/img]

[i][b]The file containing - sample!!!
Plik zawiera - sample !!![/b][/i]

gatunek: Dramat Wojenny
produkcja: Australia
premiera: 13 sierpnia 1981 (świat)
reżyseria: Peter Weir
scenariusz: Peter Weir David Williamson
muzyka: Brian May , Jean-Michel Jarre
zdjęcia: Russell Boyd
czas: 01:51:31

Opis Filmu:

Two Australian sprinters face the brutal realities of war when they 
are sent to fight in the Gallipoli campaign in Turkey during World War I.

Gdzieś w środkowej Australii poznaje się dwóch młodych mężczyzn. W pobliskim 
miasteczku ma odbyć się coroczny festyn połączony z zawodami sportowymi w tym 
długi bieg. Młodzieńcy przypadają sobie do serca i rodzi się piękna przyjaźń. 
Po biegu trwa agitacja na rzecz udziału wojska australijskiego w wojnie która 
toczy się w Europie. Chłopaki dla żartu postanawiają zaciągnąć się do armii.

[img]image[/img]
[img]image[/img]
[img]image[/img]

Obsada:

[i][b]Mel Gibson[/b][/i] 	... 	Frank Dunne
Robert Grubb 	... 	Billy 
Heath Harris 	... 	Stockman 

Dane Techniczne:

Gallipoli (1981)-alE13.mkv
Format : Matroska
Format version : Version 2
File size : 2.24 GiB
Duration : 1h 51mn
Overall bit rate : 2 870 Kbps
Movie name : Gallipoli (1981)-alE13
Encoded date : UTC 2013-02-10 12:20:00
Writing application : mkvmerge v5.8.0 
Writing library : libebml v1.2.3 + libmatroska v1.3.0

Video
ID : 1
Format : AVC
Format/Info : Advanced Video Codec
Format profile : Main@L3.1
Format settings, CABAC : Yes
Format settings, ReFrames : 2 frames
Muxing mode : Header stripping
Codec ID : V_MPEG4/ISO/AVC
Duration : 1h 51mn
Bit rate : 2 500 Kbps
Width : 1 280 pixels
Height : 544 pixels
Display aspect ratio : 2.35:1
Frame rate mode : Constant
Frame rate : 24.000 fps
Color space : YUV
Chroma subsampling : 4:2:0
Bit depth : 8 bits
Scan type : Progressive
Bits/(Pixel*Frame) : 0.150
Stream size : 1.89 GiB (85%)
Writing library : x264 core 112 r1834 a51816a

Audio
ID : 4
Format : AC-3
Format/Info : Audio Coding 3
Mode extension : CM (complete main)
Format settings, Endianness : Big
Muxing mode : Header stripping
Codec ID : A_AC3
Duration : 1h 51mn
Bit rate mode : Constant
Bit rate : 384 Kbps
Channel(s) : 6 channels
Channel positions : Front: L C R, Side: L R, LFE
Sampling rate : 48.0 KHz
Bit depth : 16 bits
Compression mode : Lossy
Stream size : 306 MiB (13%)
Title : English AC-3 5.1
Language : English


Text #1
ID : 2
Format : VobSub
Muxing mode : zlib
Codec ID : S_VOBSUB
Codec ID/Info : The same subtitle format used on DVDs
Language : Polish

Text #2
ID : 3
Format : VobSub
Muxing mode : zlib
Codec ID : S_VOBSUB
Codec ID/Info : The same subtitle format used on DVDs
Language : English


Menu
00:00:00.000 : en:As Fast As A Leopard
00:09:47.000 : en:The Distant War
00:17:37.000 : en:The Late Entry
00:22:48.000 : en:Not Coming Home
00:27:40.000 : en:Journey To Perth
00:40:48.000 : en:The Light Horse
00:50:09.000 : en:The Infantry
00:57:07.000 : en:Foreign Exchange
01:02:59.000 : en:Mates
01:15:27.000 : en:Front Lines
01:24:48.000 : en:A Blind Eye
01:31:42.000 : en:The Runner
01:34:47.000 : en:Push On
01:41:34.000 : en:The Final Race
01:48:09.000 : en:End Credits[/center]
1.jpg 367.108 KB
11.jpg 72.884 KB
2.jpg 380.184 KB
Gathering some info...

Register and log in Isohunt and see no captcha anymore!

4000 symbols left
Hash 9CEE3B294DAA7F3F99AD3F68918F6FB7A258633E

Related torrents for "Gallipoli (1981)[BDRip.x264.AC3][Napisy PL-Eng][Eng]"

Torrent search:

english 1981 x264 bd