Madonna - Celebration (Album Version Video Edit)

Size 265.787 MB   0 seeders     Added 2013-02-10 21:55:01

Stream torrent
Starting‥ You need BitLord! Get it from 1BitLord.com
To download or stream you need BitLord. Visit them at BitLord.com
Madonna's music video Celebration, edited for original album version of song.
 
http://bayimg.com/aAJmgaAEh 
http://bayimg.com/AaJmhAAeh

General
Format                           : MPEG-4
Format profile                   : Base Media
Codec ID                         : isom
File size                        : 253 MiB
Duration                         : 3mn 24s
Overall bit rate                 : 10.4 Mbps

Video
ID                               : 1
Format                           : AVC
Format/Info                      : Advanced Video Codec
Format profile                   : Main@L4.0
Format settings, CABAC           : Yes
Format settings, ReFrames        : 2 frames
Format settings, GOP             : M=3, N=42
Codec ID                         : avc1
Codec ID/Info                    : Advanced Video Coding
Duration                         : 3mn 24s
Bit rate                         : 9 999 Kbps
Width                            : 1 920 pixels
Height                           : 1 080 pixels
Display aspect ratio             : 16:9
Frame rate mode                  : Constant
Frame rate                       : 25.000 fps
Color space                      : YUV
Chroma subsampling               : 4:2:0
Bit depth                        : 8 bits
Scan type                        : Progressive
Bits/(Pixel*Frame)               : 0.193
Stream size                      : 250 MiB (99%)
Writing library                  : x264 core 100


Audio
ID                               : 2
Format                           : AAC
Format/Info                      : Advanced Audio Codec
Format profile                   : LC
Codec ID                         : 40
Duration                         : 3mn 24s
Bit rate mode                    : Variable
Bit rate                         : 128 Kbps
Channel(s)                       : 2 channels
Channel positions                : Front: L R
Sampling rate                    : 48.0 KHz
Compression mode                 : Lossy
Stream size                      : 3.12 MiB (1%)

		
Madonna - Celebration.mp4 265.787 MB
Gathering some info...

Register and log in Isohunt and see no captcha anymore!

4000 symbols left
Hash BC7F2D7BE0A2274BF0080CBF9514C6FC633ADB87