Luna

Luna (1983)

Children, Comedy

Full description

Quantum Leap S02e01 - Luna di miele Express - Honeymoon Express [Mux - XviD - Italian English Mp3] MIRCrew [TNT Village]

Size 448.555 MB   14 seeders     Added 2013-02-11 00:45:08

Stream torrent
Starting‥ You need BitLord! Get it from 1BitLord.com
To download or stream you need BitLord. Visit them at BitLord.com
Quantum Leap S02e01 - Luna di miele Express - Honeymoon Express [Mux - XviD - Italian English Mp3] MIRCrew [TNT Village]



[color=#990000][IMG]image[/IMG]


[IMG]image[/IMG]

Quantum Leap S02e01 - Luna di miele Express - Honeymoon Express 
 

[URL=http://www.imdb.com/title/tt0096684/][IMG]image[/IMG][/URL] 




[IMG]image[/IMG]

In viaggio nel tempo (Quantum Leap) è una serie televisiva di fantascienza prodotta a partire dal 1989 per la rete NBC, per un totale di cinque stagioni. Creato da Donald P. Bellisario, 

Deborah Pratt, John Hill, Paul Brown e Tom Blomquist, ospita nel suo cast Scott Bakula (il futuro capitano Jonathan Archer della serie tv Star Trek: Enterprise) e Dean Stockwell. Venne 

trasmesso in Italia per la prima volta dalla Rai negli anni novanta, in seguito da altre emittenti private.
Continui richiami alla fisica quantistica non fanno che nascondere in realtà storie di gente comune alle prese con le difficoltà della vita, aiutate dal protagonista che prende 

letteralmente il loro posto per l'intera durata dell'episodio.

[IMG]image[/IMG]

Sam: (Scott Bakula)
Al: (Dean Stockwell)
Ziggy: Ziggy 


[IMG]image[/IMG]

Il dottor Samuel Beckett (Scott Bakula) fonda il progetto top secret Quantum Leap, che renderà finalmente possibile il viaggio nel tempo. Ma proprio quando il progetto sta per essere 

ultimato viene tagliato il finanziamento e Sam, preoccupato per il futuro incerto dell'esperimento sceglie di attivare l'ancora incompleto Acceleratore (la macchina per il salto nel 

tempo). 
Il protagonista si ritrova così a saltare attraverso gli anni senza un apparente motivo e senza alcun controllo.

[IMG]image[/IMG]

Quantum Leap is an American television series that was broadcast on NBC from March 26, 1989 to May 5, 1993, for a total of five seasons. The series was created by Donald Bellisario, and 

starred Scott Bakula as Dr. Sam Beckett, a quantum physicist from the near future who becomes lost in time following a time travel experiment, temporarily taking the places of other 

people to "put right what once went wrong". Dean Stockwell co-starred as Al Calavicci, Sam's womanizing, cigar-smoking sidekick and best friend, who appeared as a hologram that only Sam, 

animals, young children, and the mentally ill could see and hear.[3] The series featured a mix of comedy, drama and melodrama, social commentary, nostalgia, and science fiction, which won 

it a broad range of fans. One of its trademarks is that at the end of each episode, Sam "leaps" into the setting for the next episode, usually uttering a dismayed "Oh, boy!"

Despite struggling on Friday nights in its brief first season, the show was renewed by NBC because of its impressive 18-49 demographics. The series was moved to Wednesdays where it 

performed well in comparison to other fan-favorite series Wiseguy and China Beach. It was moved twice away from Wednesdays to Fridays in the fall of 1990 and to Tuesdays in the fall of 

1992 where it also performed well. The series finale aired in its successful Wednesday slot in May 1993.


Seconda stagione (USA 1990)

2.01 Luna di miele Express Honeymoon Express 27/04/1960
2.02 Inferno in discoteca Disco Inferno 01/04/1976
2.03 Sayonara Sam The Americanization of Machiko 04/08/1953
2.04 Una segretaria particolare What Price Gloria?16/10/1961
2.05 L'amore è cieco Blind Faith 06/02/1964
2.06 Good morning, Peoria Good Morning, Peoria 09/09/1959
2.07 Shalom Thou Shalt Not… 02/02/1974
2.08 Jimmy Jimmy 14/10/1964
2.09 Giuro di dire tutta la verità So Help Me God 29/07/1957
2.10 Stelle cadenti Catch a Falling Star 21/05/1979
2.11 Il ritratto di Nancy A Portrait for Troian 07/02/1971
2.12 La confraternita degli animali Animal Frat 19/10/1967
2.13 Mamma Sam Another Mother 30/09/1981
2.14 Una laurea in amicizia All Americans 06/11/1962
2.15 Fascino Her Charm 26/09/1973
2.16 Il dono più grande Freedom 22/11/1970
2.17 Buona notte anima mia Good Night, Dear Heart 09/11/1957
2.18 Io e Alberta Pool Hall Blues 04/09/1954
2.19 Salto triplo Leaping in Without a Net 18/11/1958
2.20 Maybe baby Maybe Baby 11/03/1963
2.21 Sposa di mare Sea Bride 03/06/1954
2.22 Disperso M.I.A. 01/04/1969

[IMG]image[/IMG]

[IMG]image[/IMG]

[IMG]image[/IMG]

[IMG]image[/IMG]

General
Complete name : Quantum Leap S01e03 - Un amore da salvare.Mux - Italian English MIRCrew.avi
Format : AVI
Format/Info : Audio Video Interleave
File size : 451 MiB
Duration : 46mn 11s
Overall bit rate : 1 367 Kbps
Writing application : VirtualDubMod 1.5.10.2 (build 2540/release)
Writing library : VirtualDubMod build 2540/release

Video
ID : 0
Format : MPEG-4 Visual
Format profile : Advanced Simple@L5
Format settings, BVOP : Yes
Format settings, QPel : No
Format settings, GMC : No warppoints
Format settings, Matrix : Default (H.263)
Codec ID : XVID
Codec ID/Hint : XviD
Duration : 46mn 11s
Bit rate : 1 032 Kbps
Width : 640 pixels
Height : 480 pixels
Display aspect ratio : 4:3
Frame rate : 25.000 fps
Color space : YUV
Chroma subsampling : 4:2:0
Bit depth : 8 bits
Scan type : Progressive
Bits/(Pixel*Frame) : 0.134
Stream size : 341 MiB (76%)
Writing library : XviD 1.1.0 (UTC 2005-11-22)

Audio #1
ID : 1
Format : MPEG Audio
Format version : Version 1
Format profile : Layer 3
Codec ID : 55
Codec ID/Hint : MP3
Duration : 46mn 11s
Bit rate mode : Constant
Bit rate : 128 Kbps
Channel(s) : 2 channels
Sampling rate : 48.0 KHz
Stream size : 42.3 MiB (9%)
Alignment : Aligned on interleaves
Interleave, duration : 40 ms (1.00 video frame)
Interleave, preload duration : 504 ms
Writing library : LAME3.99r
Encoding settings : -m s -V 4 -q 3 -lowpass 17 -b 128

Audio #2
ID : 2
Format : MPEG Audio
Format version : Version 1
Format profile : Layer 3
Codec ID : 55
Codec ID/Hint : MP3
Duration : 46mn 11s
Bit rate mode : Constant
Bit rate : 192 Kbps
Channel(s) : 2 channels
Sampling rate : 48.0 KHz
Stream size : 63.4 MiB (14%)
Alignment : Aligned on interleaves
Interleave, duration : 40 ms (1.00 video frame)
Interleave, preload duration : 504 ms
Writing library : LAME3.90.3



[/color]
Quantum Leap S02e01 - Luna di Miele Express.Mux - Italian English MIRCrew.avi 448.555 MB
Gathering some info...

Register and log in Isohunt and see no captcha anymore!

4000 symbols left
Hash D4DA788056336A217BFE4A20E234A93589ABA5B4

Related torrents for "Quantum Leap S02e01 - Luna di miele Express - Honeymoon Express [Mux - XviD - Italian English Mp3] MIRCrew [TNT Village]"