The Lords of Salem (2012) DVDScreen x264

Size 733.795 MB   0 seeders     Added 2013-02-11 00:41:01

Stream torrent
Starting‚Ä• You need BitLord! Get it from 1BitLord.com
To download or stream you need BitLord. Visit them at BitLord.com
TITLE:

The Lords of Salem (2012) DVDScreen x264




SOURCES:

VIDEO   -  NEW SOURCE and UNKNOWN THANKS
AUDIO   -  ADTRG THANKS
SUBS    -  ENG WHEN NEEDED
IMDb ID - http://www.imdb.com/title/tt1731697


STATS:

video				 : mkv
ID                               : 0
Format                           : MPEG-4 Visual
Format profile                   : Advanced Simple@L5
Format settings, BVOP            : 2
Format settings, QPel            : No
Format settings, GMC             : No warppoints
Format settings, Matrix          : Default (MPEG)
Muxing mode                      : Packed bitstream
Codec ID                         : XVID
Codec ID/Hint                    : XviD
Duration                         : 1h 41mn
Bit rate                         : 2 511 Kbps
Width                            : 720 pixels
Height                           : 456 pixels
Display aspect ratio             : 2.500
Frame rate                       : 29.970 fps
Color space                      : YUV
Chroma subsampling               : 4:2:0
Bit depth                        : 8 bits
Scan type                        : Progressive
Compression mode                 : Lossy
Bits/(Pixel*Frame)               : 0.404
Stream size                      : 1.28 GiB (95%)
Writing library                  : XviD 64

Audio
ID                               : 1
Format                           : MPEG Audio
Format version                   : Version 1
Format profile                   : Layer 3
Mode                             : Joint stereo
Mode extension                   : MS Stereo
Codec ID                         : 55
Codec ID/Hint                    : MP3
Duration                         : 1h 41mn
Bit rate mode                    : Constant
Bit rate                         : 128 Kbps
Channel(s)                       : 2 channels
Sampling rate                    : 48.0 KHz
Compression mode                 : Lossy
Stream size                      : 66.7 MiB (5%)
Alignment                        : Split accross interleaves
Interleave, duration             : 33 ms (1.00 video frame)
Interleave, preload duration     : 500 ms
The Lords of Salem (2012) DVDScreen x264/The Lords of Salem (2012) DVDScreen x264/Sample.mp4 5.963 MB
The Lords of Salem (2012) DVDScreen x264/The Lords of Salem (2012) DVDScreen x264/The Lords of Salem (2012) DVDScreen x264.rar 727.831 MB
The Lords of Salem (2012) DVDScreen x264/The Lords of Salem (2012) DVDScreen x264/Torrent downloaded from Demonoid.me.txt 700 B
Gathering some info...

Register and log in Isohunt and see no captcha anymore!

4000 symbols left
Hash 82b9fb5fc9327347c9512bdf4cc070a7da26fe31