A Good Day to Die Hard (2013) DVDScreen XVID

Size 773.656 MB   0 seeders     Added 2013-02-11 00:55:03

2.6
To download or stream you need BitLord. Visit them at BitLord.com
TITLE:


A Good Day to Die Hard (2013) DVDScreen XVID

Genre: Action | Crime | Thriller

IMDb: http://www.imdb.com/title/tt1606378

SOURCES:

VIDEO -  NEW SOURCE and UNKNOWN THANKS
AUDIO -  MAXSPEED THANKS
SUBS  -  ENG WHEN NEEDED

STATS:

video				 : mkv
ID                               : 0
Format                           : MPEG-4 Visual
Format profile                   : Advanced Simple@L5
Format settings, BVOP            : 2
Format settings, QPel            : No
Format settings, GMC             : No warppoints
Format settings, Matrix          : Default (MPEG)
Muxing mode                      : Packed bitstream
Codec ID                         : XVID
Codec ID/Hint                    : XviD
Duration                         : 1h 58mn
Bit rate                         : 2 511 Kbps
Width                            : 720 pixels
Height                           : 456 pixels
Display aspect ratio             : 2.500
Frame rate                       : 29.970 fps
Color space                      : YUV
Chroma subsampling               : 4:2:0
Bit depth                        : 8 bits
Scan type                        : Progressive
Compression mode                 : Lossy
Bits/(Pixel*Frame)               : 0.404
Stream size                      : 1.28 GiB (95%)
Writing library                  : XviD 64

Audio
ID                               : 1
Format                           : MPEG Audio
Format version                   : Version 1
Format profile                   : Layer 3
Mode                             : Joint stereo
Mode extension                   : MS Stereo
Codec ID                         : 55
Codec ID/Hint                    : MP3
Duration                         : 1h 58mn
Bit rate mode                    : Constant
Bit rate                         : 128 Kbps
Channel(s)                       : 2 channels
Sampling rate                    : 48.0 KHz
Compression mode                 : Lossy
Stream size                      : 66.7 MiB (5%)
Alignment                        : Split accross interleaves
Interleave, duration             : 33 ms (1.00 video frame)
Interleave, preload duration     : 500 ms
A Good Day to Die Hard (2013) DVDScreen XVID/A Good Day to Die Hard (2013) DVDScreen XVID/A Good Day to Die Hard (2013) DVDScreen XVID.rar 727.831 MB
A Good Day to Die Hard (2013) DVDScreen XVID/A Good Day to Die Hard (2013) DVDScreen XVID/Sample - A Good Day To Die Hard (HD).mp4 45.824 MB
A Good Day to Die Hard (2013) DVDScreen XVID/A Good Day to Die Hard (2013) DVDScreen XVID/Torrent downloaded from Demonoid.me.txt 692 B
Gathering some info...

Register and log in Isohunt and see no captcha anymore!

4000 symbols left
Hash 0a3177a1121a3a0cfdf9ff37863eedaa56025acf

Related torrents for "A Good Day to Die Hard (2013) DVDScreen XVID"

Torrent search:

2013