imdb
rating

4.2
Border Run

Border Run (2012)

Crime, Thriller

Full description
quality   x264 hd bd h264 fullhd dvdrip

Border Run 2012 BRRip XviD-DiN

Size 1.467 GB   0 seeders     Added 2013-02-11 03:46:19

Stream torrent
Starting‥ You need BitLord! Get it from BitLord.com
To download or stream you need BitLord. Visit them at BitLord.com
 http://www.imdb.com/title/tt2069955/ 
General 
Complete name                            : Border.Run.2012.BRRip.XviD-DiN 
Format                                 : AVI 
Format/Info                              : Audio Video Interleave 
File size                                : 1.37 GiB 
Duration                               : 1h 36mn 
Overall bit rate                       : 2 029 Kbps 
Video 
ID                                     : 0 
Format                                 : MPEG-4 Visual 
Format profile                         : Advanced Simple@L5 
Format settings, BVOP                    : 2 
Format settings, QPel                    : No 
Format settings, GMC                   : No warppoints 
Format settings, Matrix                  : Default (H.263) 
Codec ID                               : XVID 
Codec ID/Hint                            : XviD 
Duration                               : 1h 36mn 
Bit rate                               : 1 574 Kbps 
Width                                    : 720 pixels 
Height                                 : 304 pixels 
Display aspect ratio                   : 2.35:1 
Frame rate                             : 23.976 fps 
Color space                              : YUV 
Chroma subsampling                     : 4:2:0 
Bit depth                                : 8 bits 
Scan type                                : Progressive 
Compression mode                       : Lossy 
Bits/(Pixel*Frame)                     : 0.300 
Stream size                              : 1.06 GiB (78%) 
Writing library                          : XviD 1.2.1 (UTC 2008-12-04) 
Audio 
ID                                     : 1 
Format                                 : AC-3 
Format/Info                              : Audio Coding 3 
Mode extension                         : CM (complete main) 
Format settings, Endianness              : Big 
Codec ID                               : 2000 
Duration                               : 1h 36mn 
Bit rate mode                            : Constant 
Bit rate                               : 448 Kbps 
Channel(s)                             : 6 channels 
Channel positions                        : Front: L C R, Side: L R, LFE 
Sampling rate                            : 48.0 KHz 
Bit depth                                : 16 bits 
Compression mode                       : Lossy 
Stream size                              : 309 MiB (22%) 
Alignment                                : Aligned on interleaves 
Interleave, duration                   : 64 ms (1.53 video frames) 
Interleave, preload duration           : 192 ms 
Title                                    : borderrun
mtiumsduchess		
Border.Run.2012.BRRip.XviD-DiN/borderrun-din.avi 1.466 GB
Border.Run.2012.BRRip.XviD-DiN/borderrun-din.nfo 2.809 KB
Border.Run.2012.BRRip.XviD-DiN/borderrun-din_eng.srt 57.782 KB
Gathering some info...

Register and log in Isohunt and see no captcha anymore!

4000 symbols left
Hash c996b4682080cf7003db1ad171ac352b2d981c78

Related torrents for "Border Run 2012 BRRip XviD-DiN"

Torrent search:

2012 bd