Ireland

Ireland (2004)

Drama

Full description

2013 02 10 6N Ireland v England 720p x264

Size 2.63 GB   0 seeders     Added 2013-02-11 07:35:36

Stream torrent
Starting‥ You need BitLord! Get it from BitLord.com
To download or stream you need BitLord. Visit them at BitLord.com
SPORT: Six Nations Rugby Union - Ireland v England
On: BBC 1 HD   
Date: Sunday 10th February 2013 
KO Time: 15:00

Live coverage from Dublin, where Ireland are taking on England. It is ten years since England have won a Six Nations match in Dublin - that was the resounding 42-6 victory which clinched the Grand Slam in a year in which they went on to win the World Cup. Another win today would be a boost to head coach Stuart Lancasters belief that his side are going in the right direction. But Ireland are determined to avenge last years 30-9 defeat at Twickenham, when their forwards were steam-rollered by Englands dominant pack. Match commentary comes from Eddie Butler and Brian Moore.


General
Complete name                            : 2013.02.10.6N.Ireland.v.England.720p.x264.mp4
Format                                   : MPEG-4
Format profile                           : Base Media
Codec ID                                 : isom
File size                                : 2.45 GiB
Duration                                 : 1h 49mn
Overall bit rate mode                    : Variable
Overall bit rate                         : 3 195 Kbps

Video
ID                                       : 1
Format                                   : AVC
Format/Info                              : Advanced Video Codec
Format profile                           : High@L4.1
Format settings, CABAC                   : Yes
Format settings, ReFrames                : 5 frames
Codec ID                                 : avc1
Codec ID/Info                            : Advanced Video Coding
Duration                                 : 1h 49mn
Bit rate                                 : 3 067 Kbps
Maximum bit rate                         : 7 759 Kbps
Width                                    : 1 280 pixels
Height                                   : 720 pixels
Display aspect ratio                     : 16:9
Frame rate mode                          : Constant
Frame rate                               : 25.000 fps
Color space                              : YUV
Chroma subsampling                       : 4:2:0
Bit depth                                : 8 bits
Scan type                                : Progressive
Bits/(Pixel*Frame)                       : 0.133
Stream size                              : 2.35 GiB (96%)
Writing library                          : x264 core 129 r2245 bc13772

Audio
ID                                       : 2
Format                                   : AAC
Format/Info                              : Advanced Audio Codec
Format profile                           : LC
Codec ID                                 : 40
Duration                                 : 1h 49mn
Bit rate mode                            : Variable
Bit rate                                 : 124 Kbps
Maximum bit rate                         : 127 Kbps
Channel(s)                               : 2 channels
Channel positions                        : Front: L R
Sampling rate                            : 48.0 KHz
Compression mode                         : Lossy
Delay relative to video                  : 80ms
Stream size                              : 97.3 MiB (4%)
Language                                 : English-------------------------------------Torrent downloaded from http://thepiratebay.se
2013.02.10.6N.Ireland.v.England.720p.x264.mp4 2.63 GB
2013.02.10.6N.Ireland.v.England.720p.x264.nfo 3.274 KB
Gathering some info...

Register and log in Isohunt and see no captcha anymore!

4000 symbols left
Hash 34504693E16DD94287DCB9457D5C3067FA117309

Related torrents for "2013 02 10 6N Ireland v England 720p x264"

Torrent search:

x264 hd 2013