Star Wars The Clone Wars: Darth Maul Returns

Star Wars The Clone Wars: Darth Maul Returns (2012)

Animation, Fantasy, Science Fiction

Full description
quality   dvdrip x264 fullhd bd telesync

Star Wars Darth Maul Returns 2012 DVDRip Xvid AC3 UnknOwN

Size 957.766 MB   0 seeders     Added 2013-02-11 15:40:41

Stream torrent
Starting‥ You need BitLord! Get it from 1BitLord.com
To download or stream you need BitLord. Visit them at BitLord.com
[b]Star Wars Darth Maul Returns 2012 DVDRip Xvid AC3 UnknOwN[/b]

[IMG]image[/IMG]

-------------------------------------------------------------------------------------------------------------------------
[color=blue][b]
Plot:[/b][/color]
Executive Producer George Lucas presents the story of Darth Maul\'s return!
This full length Director\'s Cut features the return of the vicious Darth Maul, believed dead by the hands of Obi-Wan Kenobi at the end of \"The Phantom Menace\" 

-------------------------------------------------------------------------------------------------------------------------
[b]
Language : English
Subtitles :None
[/b] 
-------------------------------------------------------------------------------------------------------------------------

[color=blue][b]Info[/b][/color]

Encoded By: UnKnOwN
Runtime: 1:08
Language: English
File Size: 984mb
Release Date ......... 2013
File Type ......... Single AVI
Genre ......... Horror/Comedy

http://www.amazon.com/Star-Wars-The-Clone-Exclusive/dp/B00992GH5C

[b]Video:[/b]
ID: 0
Format: MPEG-4 Visual
Format profile: Advanced Simple@L5
Format settings, BVOP: Yes
Format settings, QPel: No
Format settings, GMC: No warppoints
Format settings, Matrix: Custom
Codec ID: XVID
Codec ID/Hint: XviD
Duration: 1h 08mn
Bit rate: 1380kbps
Width: 720pixels
Height: 304pixels
Display aspect ratio: 2:35
Frame rate: 29.000fps
Color space: YUV
Chroma subsampling: 4:2:0
Bit depth: 8 bits
Scan type: Progressive
Bits/(Pixel*Frame): 0.234
Stream size: 892 MiB (86%)
Writing library: XviD 1.2.1 (UTC 2008-12-04)

[b]Audio:[/b]
ID: 1
Format: AC3
Format/Info: MPEG
Mode extension: CM (complete main)
Codec ID: 2000
Duration: 1h 08mn
Bit rate mode: Constant
Bit rate: 448kbps
Channel(s): 6channels
Channel positions: Front: L C R, Side: L R, LFE
Sampling rate: 48.0 KHz
Bit depth: 16 bits
Stream size: 302 MiB
Alignment: Aligned on interleaves
Interleave, duration: 42 ms (1.00 video frame)
Interleave, preload duration: 512 ms

-------------------------------------------------------------------------------------------------------------------------
[color=blue][b]
Screenshots :[/b][/color]
[b]Click images for full size view[/b]

[url="http://imgbox.com/acfMhvYj"][IMG]image[/IMG][/url] [url="http://imgbox.com/adjFZA8p"][IMG]image[/IMG][/url]

[url="http://imgbox.com/adwl7CM5"][IMG]image[/IMG][/url] [url="http://imgbox.com/addpTQ5T"][IMG]image[/IMG][/url]

[url="http://imgbox.com/acx5g45g"][IMG]image[/IMG][/url] [url="http://imgbox.com/abgxCiKG"][IMG]image[/IMG][/url]

[url="http://imgbox.com/abiPmbAW"][IMG]image[/IMG][/url] [url="http://imgbox.com/adwl7CM5"][IMG]image[/IMG][/url]

-------------------------------------------------------------------------------------------------------------------------

cover.jpg 211.94 KB
swdmrUnKnOwN.avi 957.543 MB
UnknOwN.nfo 11.227 KB
Gathering some info...

Register and log in Isohunt and see no captcha anymore!

4000 symbols left
Hash F74A6F43B0C4228E42AAAE1ABA9B4A4DF5B35473

Related torrents for "Star Wars Darth Maul Returns 2012 DVDRip Xvid AC3 UnknOwN"

Torrent search:

dvdrip 2012