imdb
rating

5.9
A Perfect Ending

A Perfect Ending (2012)

Drama

Full description
quality   dvdrip

A Perfect Ending 2012 DVDRiP XViD AC3-UnKnOwN

Size 1.39 GB   46 seeders     Added 2013-02-11 16:01:27

Stream torrent
Starting‥ You need BitLord! Get it from BitLord.com
To download or stream you need BitLord. Visit them at BitLord.com

[b]A Perfect Ending 2012 DVDRiP XViD AC3-UnKnOwN[/b]

http://www.imdb.com/title/tt1823059/

[IMG]image[/IMg]

-------------------------------------------------------------------------------------------------------------------------
[color=blue][b]
Plot :[/b][/color]

Rebecca has a very unusual secret| one that not even her best friends know about. The last person on earth she expects to reveal it to is a high priced escort named
Paris. What starts as a comedy of errors ends up a uniquely erotic journey.

-------------------------------------------------------------------------------------------------------------------------
[b]
Language : English
Subtitles : None
[/b]
-------------------------------------------------------------------------------------------------------------------------
[color=blue][b]
Info[/b]
[/color]
Encoded By .......:UnKnOwN 
Runtime ..........:1:50 
Language .........:English 
File Size ........:1.34gb 
Release Date ......... 2013 
Source ......... Always UnknOwN 
File Type ......... Single AVI 
PS3 Compatible ....... Get the new PS4 
Genre ......... Drama/Thriller 
 
 
[b]Video[/b] 
ID : 0 
Format : MPEG-4 Visual 
Format profile : Advanced Simple@L5 
Format settings, BVOP : Yes 
Format settings, QPel : No 
Format settings, GMC : No warppoints 
Format settings, Matrix : Custom 
Codec ID : XVID 
Codec ID/Hint : XviD 
Duration : 1h 50mn 
Bit rate : 1340kbps 
Width : 680pixels 
Height : 386pixels 
Display aspect ratio : 16:9 
Frame rate : 29.000fps 
Color space : YUV 
Chroma subsampling : 4:2:0 
Bit depth : 8 bits 
Scan type : Progressive 
Bits/(Pixel*Frame) : 0.234 
Stream size : 892 MiB (86%) 
Writing library : XviD 1.2.1 (UTC 2008-12-04) 
 
 
[b]Audio[/b] 
ID : 1 
Format : AC3 
Format/Info : MPEG 
Mode extension : CM (complete main) 
Codec ID : 2000 
Duration : 1h 50mn 
Bit rate mode : Constant 
Bit rate : 448kbps 
Channel(s) : 6channels 
Channel positions : Front: L C R, Side: L R, LFE 
Sampling rate : 48.0 KHz 
Bit depth : 16 bits 
Stream size : 302 MiB 
Alignment : Aligned on interleaves 
Interleave, duration : 42 ms (1.00 video frame) 
Interleave, preload duration : 512 ms

-------------------------------------------------------------------------------------------------------------------------
[color=blue]
[b]Screenshots:[/b][/color]

[IMG]image[/IMG]

[IMG]image[/IMG]

[IMG]image[/IMG]

[IMG]image[/IMG]

[IMG]image[/IMG]

-------------------------------------------------------------------------------------------------------------------------
apeUnKnOwN.avi 1.39 GB
cover.jpg 98.783 KB
UnknOwN.nfo 11.227 KB
Gathering some info...

Register and log in Isohunt and see no captcha anymore!

4000 symbols left
Hash CE5601A5E7A70EBED2A93C4FEE6576D1298C0BB9

Related torrents for "A Perfect Ending 2012 DVDRiP XViD AC3-UnKnOwN"

Torrent search:

dvdrip 2012