Die Hard 4.0 (2007) 720p MKV x264 AC3 BRrip [Pioneer]

Size 1.445 GB   28 seeders     Added 2013-02-11 17:00:51

Stream torrent
Starting‥ You need BitLord! Get it from 1BitLord.com
To download or stream you need BitLord. Visit them at BitLord.com
[IMG]image[/IMG]


Time to pull on the vest one more time as Bruce Willis reprises his role of John McClane, everyday NY cop with a knack for being in the wrong place at the wrong time. Set in Washington DC, this fourth instalment of the franchise, finds McClane routinely asked to bring in a computer hacker, Matt Farrell (Justin Long) for questioning. In transit, events overtake them as they witness a full-scale cyber attack on the country's infrastructure led by mystery attacker Thomas Gabriel (Timothy Oliphant), who plans to systematically shut down or destroy the nation's major networks over three days. With time running out, McClane and his hacker friend have to stop the mastermind before it's too late. Yippee Ki Yay.

Starring: Bruce Willis, Timothy Olyphant, Maggie Q, Justin Long, Jeffrey Wright, Mary Elizabeth Winstead, Kevin Smith
Director: Len Wiseman


http://www.imdb.com/title/tt0337978/


http://www.youtube.com/watch?v=3EUJYh32KVw


[IMG]image[/IMG]
[IMG]image[/IMG]
[IMG]image[/IMG]
[IMG]image[/IMG]
[IMG]image[/IMG]
[IMG]image[/IMG]



General
Unique ID: 9648908095050763594197696576394684771 (0x7424FE5FCF3F54020D5B6549838E963)
Complete name: E:\Die Hard 4.0(2007) 720p MKV x264 AC3 BRrip [Pioneer]
Format: Matroska
Format version: Version 2
File size: 1.35 GiB
Duration: 2h 8mn
Overall bit rate: 1 496 Kbps
Writing application: HandBrake 0.9.8
Writing library: libmkv 0.6.5

Video
ID: 1
Format: AVC
Format/Info: Advanced Video Codec
Format profile: High@L3.1
Format settings, CABAC: Yes
Format settings, ReFrames: 4 frames
Codec ID: V_MPEG4/ISO/AVC
Duration: 2h 8mn
Bit rate: 1 300 Kbps
Width: 1 280 pixels
Height: 528 pixels
Display aspect ratio: 2.40:1
Original display aspect ratio: 2.40:1
Frame rate mode: Constant
Frame rate: 23.976 fps
Color space: YUV
Chroma subsampling: 4:2:0
Bit depth: 8 bits
Scan type: Progressive
Bits/(Pixel*Frame): 0.080
Stream size: 1.15 GiB (85%)
Writing library: x264 core 120
Language: English
Default: Yes
Forced: No
Color primaries: BT.709
Transfer characteristics: BT.709
Matrix coefficients: BT.709

Audio
ID: 2
Format: AC-3
Format/Info: Audio Coding 3
Mode extension: CM (complete main)
Format settings, Endianness: Big
Codec ID: A_AC3
Duration: 2h 8mn
Bit rate mode: Constant
Bit rate: 192 Kbps
Channel(s): 6 channels
Channel positions: Front: L C R, Side: L R, LFE
Sampling rate: 48.0 KHz
Bit depth: 16 bits
Compression mode: Lossy
Stream size: 177 MiB (13%)
Language: English
Default: Yes
Forced: No
Die Hard 4.0(2007) 720p MKV x264 AC3 BRrip [Pioneer].mkv 1.445 GB
Gathering some info...

Register and log in Isohunt and see no captcha anymore!

4000 symbols left
Hash 313BDA4CED631378F194DA1B28EAECBA916934B3

Related torrents for "Die Hard 4.0 (2007) 720p MKV x264 AC3 BRrip [Pioneer]"

Torrent search:

x264 2007 hd bd