Ram Kasam 1978 X264 AAC 1CD DvDRip RRG DADA DBBIANS Com mp4

Size 935.881 MB   0 seeders     Added 2013-02-11 18:35:31

Stream torrent
Starting‚Ä• You need BitLord! Get it from BitLord.com
To download or stream you need BitLord. Visit them at BitLord.com
Covers - 
 
http://www.pixroute.com/z4mxfrgphipc

Screens - 
 
http://pixroute.com/60uambvp6zxf



Complete name : Ram.Kasam.1978.X264.AAC.1CD.DvDRip.RRG.DADA.mp4
Format : MP4 Video
File size : 893 MiB
Duration : 2h 14mn
Overall bit rate : 931 Kbps


Video
Format : AVC
Format/Info : Advanced Video Codec
Format profile : Main@L3.0
Format settings, CABAC : Yes
Format settings, ReFrames : 3 frames
Muxing mode : Container profile=Unknown@3.0
Duration : 2h 14mn
Bit rate : 794 Kbps
Width : 654 pixels
Height : 480 pixels
Display aspect ratio : 4:3
Frame rate mode : Constant
Frame rate : 25.000 fps
Color space : YUV
Chroma subsampling : 40
Bit depth : 8 bits
Scan type : Progressive
Bits/(Pixel*Frame) : 0.101
Stream size : 761 MiB (85%)

Audio
Format : AAC
Format/Info : Advanced Audio Codec
Format version : Version 4
Format profile : LC
Format settings, SBR : No
Duration : 2h 14mn
Bit rate : 129 Kbps
Channel(s) : 2 channels
Channel positions : Front: L R
Sampling rate : 44.1 KHz
Bit depth : 16 bits
Stream size : 123 MiB (14%)		
Ram.Kasam.1978.X264.AAC.1CD.DvDRip.RRG.DADA.DBBIANS.Com.mp4 935.881 MB
Gathering some info...

Register and log in Isohunt and see no captcha anymore!

4000 symbols left
Hash 85D91956FEC25E6AD0D789F8983AFE3A481B44D1