Bhabhi 1957 X264 AAC 1CD DvDRip RRG DADA DBBIANS Com mp4

Size 642.775 MB   0 seeders     Added 2013-02-11 18:35:37

Stream torrent
Starting‥ You need BitLord! Get it from BitLord.com
10
To download or stream you need BitLord. Visit them at BitLord.com
Covers - 
 
http://www.pixroute.com/dq2nckbw1x24


Screens - 
 
http://pixroute.com/3lz6aon72rl4/



General

Bhabhi.1957.X264.AAC.1CD.DvDRip.RRG.DADA.mp4
Format : MPEG-4
Format profile : Base Media / Version 2
Codec ID : mp42
File size : 613 MiB
Duration : 2h 50mn
Overall bit rate : 504 Kbps

Video
ID : 1
Format : AVC
Format/Info : Advanced Video Codec
Format profile : Baseline@L3.0
Format settings, CABAC : No
Format settings, ReFrames : 1 frame
Codec ID : avc1
Codec ID/Info : Advanced Video Coding
Duration : 2h 50mn
Bit rate mode : Variable
Bit rate : 405 Kbps
Maximum bit rate : 1 224 Kbps
Width : 640 pixels
Height : 360 pixels
Display aspect ratio : 16:9
Frame rate mode : Constant
Frame rate : 29.970 fps
Color space : YUV
Chroma subsampling : 40
Bit depth : 8 bits
Scan type : Progressive
Bits/(Pixel*Frame) : 0.059
Stream size : 493 MiB (80%)


Audio
ID : 2
Format : AAC
Format/Info : Advanced Audio Codec
Format version : Version 4
Format profile : LC
Format settings, SBR : No
Codec ID : 40
Duration : 2h 50mn
Bit rate mode : Variable
Bit rate : 96.0 Kbps
Maximum bit rate : 102 Kbps
Channel(s) : 2 channels
Channel positions : Front: L R
Sampling rate : 44.1 KHz
Stream size : 117 MiB (19%)
		
Bhabhi.1957.X264.AAC.1CD.DvDRip.RRG.DADA.DBBIANS.Com.mp4 642.775 MB
Gathering some info...

Register and log in Isohunt and see no captcha anymore!

4000 symbols left
Hash C77C3B300B1268CA3D2161062F225C74DE2BCF96