Nag Panchami 1978 X264 AAC 1CD DvDRip RRG DADA DBBIANS Com mp4

Size 646.981 MB   0 seeders     Added 2013-02-11 18:35:43

Stream torrent
Starting‚Ä• You need BitLord! Get it from BitLord.com
To download or stream you need BitLord. Visit them at BitLord.com
Covers - http://pixroute.com/jd7ytz99eiu4

Screens - http://www.pixroute.com/x6sbt3uhohb9


General

Nag.Panchami.1953.X264.AAC.1CD.DvDRip.RRG.DADA.mp4
Format : MP4
File size : 617 MiB
Duration : 1h 50mn
Overall bit rate : 783 Kbps

Video
Format : AVC
Format/Info : Advanced Video Codec
Format profile : Main@L3.0
Format settings, CABAC : Yes
Format settings, ReFrames : 3 frames
Muxing mode : Container profile=Unknown@3.0
Duration : 1h 50mn
Bit rate : 646 Kbps
Width : 640 pixels
Height : 480 pixels
Display aspect ratio : 4:3
Frame rate mode : Constant
Frame rate : 25.000 fps
Color space : YUV
Chroma subsampling : 40
Bit depth : 8 bits
Scan type : Progressive
Bits/(Pixel*Frame) : 0.084
Stream size : 509 MiB (83%)

Audio
Format : AAC
Format/Info : Advanced Audio Codec
Format version : Version 4
Format profile : LC
Format settings, SBR : No
Duration : 1h 50mn
Bit rate : 129 Kbps
Channel(s) : 2 channels
Channel positions : Front: L R
Sampling rate : 44.1 KHz
Bit depth : 16 bits
Stream size : 101 MiB (16%)
		
Nag.Panchami.1978.X264.AAC.1CD.DvDRip.RRG.DADA.DBBIANS.Com.mp4 646.981 MB
Gathering some info...

Register and log in Isohunt and see no captcha anymore!

4000 symbols left
Hash 576050010D4E486D082AB983D0CF35EAA1EFD40D