imdb
rating

6.3
Twister

Twister (1996)

Action, Adventure, Drama

Full description
quality   dvdrip bd hd x264 fullhd

Twister 1996 720p BRRip x264 MP4 AAC-CC

Size 3.268 GB   11 seeders     Added 2013-02-12 02:41:17

Stream torrent
Starting‥ You need BitLord! Get it from BitLord.com
To download or stream you need BitLord. Visit them at BitLord.com
[b]Twister 1996 720p BRRip x264 MP4 AAC-CC[/b]

http://www.imdb.com/title/tt0117998

[IMG]image[/IMG]

--------------------------------------------------------------------------------------------------------------------------

[color=blue][b]Plot :[/b][/color]
Bill and Jo Harding, advanced storm chasers on the brink of divorce, must join together to create an advanced weather alert system by putting themselves in the cross-hairs of extremely violent tornadoes.
--------------------------------------------------------------------------------------------------------------------------
[b]Language : English

Subs: 
Arabic, Brazilian, Bulgarian, Croatian, Danish, Dutch, English, Finnish, French, Icelandic, Indonesian, Polish, Portuguese, Romanian, Spanish, Swedish and Turkish.
[/b]
--------------------------------------------------------------------------------------------------------------------------

[color=blue][b]Info[/b][/color]

[b]Sample and Screens included.[/b]

Source: Twister.1996.720p.BluRay.x264-HALCYON Thanks!

[b]General[/b]
Complete name : Twister-720p MP4 AAC x264 BRRip 1996-CC.mp4
Format : MPEG-4
Format profile : Base Media
Codec ID : isom
File size : 3.01 GiB
Duration : 1h 53mn
Overall bit rate mode : Variable
Overall bit rate : 3 812 Kbps
Encoded date : UTC 2013-02-09 07:59:42
Tagged date : UTC 2013-02-09 07:59:42
Writing application : Yamb 2.1.0.0

[b]Video[/b]
ID : 1
Format : AVC
Format/Info : Advanced Video Codec
Format profile : High@L4.1
Format settings, CABAC : Yes
Format settings, ReFrames : 5 frames
Codec ID : avc1
Codec ID/Info : Advanced Video Coding
Duration : 1h 53mn
Bit rate : 3 434 Kbps
Maximum bit rate : 22.2 Mbps
Width : 1 280 pixels
Height : 528 pixels
Display aspect ratio : 2.40:1
Frame rate mode : Variable
Frame rate : 23.976 fps
Minimum frame rate : 19.048 fps
Maximum frame rate : 24.390 fps
Color space : YUV
Chroma subsampling : 4:2:0
Bit depth : 8 bits
Scan type : Progressive
Bits/(Pixel*Frame) : 0.212
Stream size : 2.70 GiB (90%)
Writing library : x264 core 112

[b]Audio[/b]
ID : 2
Format : AAC
Format/Info : Advanced Audio Codec
Format profile : LC
Codec ID : 40
Duration : 1h 53mn
Bit rate mode : Variable
Bit rate : 384 Kbps
Maximum bit rate : 599 Kbps
Channel(s) : 6 channels
Channel positions : Front: L C R, Side: L R, LFE
Sampling rate : 48.0 KHz
Compression mode : Lossy
Delay relative to video : 83ms
Stream size : 310 MiB (10%)
Language : English
Encoded date : UTC 2013-02-09 08:02:45
Tagged date : UTC 2013-02-09 08:03:38

--------------------------------------------------------------------------------------------------------------------------

[color=blue][b]Screenshots :[/b][/color]
[b]Click images for full size view[/b]

[url="http://img152.imageshack.us/img152/4607/twister720pmp4aacx264br.png"][IMG]image[/IMG][/url]

[url="http://img708.imageshack.us/img708/4607/twister720pmp4aacx264br.png"][IMG]image[/IMG][/url]

[url="http://img266.imageshack.us/img266/4607/twister720pmp4aacx264br.png"][IMG]image[/IMG][/url]

[url="http://img191.imageshack.us/img191/4607/twister720pmp4aacx264br.png"][IMG]image[/IMG][/url]

[url="http://img690.imageshack.us/img690/4607/twister720pmp4aacx264br.png"][IMG]image[/IMG][/url]

[url="http://img708.imageshack.us/img708/8233/twister720pmp4aacx264bro.png"][IMG]image[/IMG][/url]

--------------------------------------------------------------------------------------------------------------------------
[b]Enjoy...[/b]
Sample/Sample.mp4 30.356 MB
Screens-Info/Info.txt 4.926 KB
Screens-Info/Twister-720p MP4 AAC x264 BRRip 1996-CC.mp4_snapshot_00.09.05.png 1.076 MB
Gathering some info...

Register and log in Isohunt and see no captcha anymore!

4000 symbols left
Hash 92A79DF6C994218CE591968894674C36DB45F3F9

Related torrents for "Twister 1996 720p BRRip x264 MP4 AAC-CC"

Torrent search:

1996 x264 hd bd