Zawodowiec - Le Professionnel (1981)[BDRip.x264.AC3][Napisy PL-Eng][Fr]

Size 3.076 GB   0 seeders     Added 2013-02-12 03:02:35

Stream torrent
Starting‥ You need BitLord! Get it from 1BitLord.com
To download or stream you need BitLord. Visit them at BitLord.com
[center][img]image[/img]

[i][b]The file containing - sample!!!
Plik zawiera - sample !!![/b][/i]

produkcja: Francja
gatunek: Sensacyjny
data premiery: 1981-10-21 (Świat)
reżyseria Georges Lautner
scenariusz Georges Lautner, Michel Audiard
zdjęcia Henri Decaë
muzyka Ennio Morricone
czas trwania: 109

Opis:

French secret agent Joss Baumont is sent to one of the African countries 
to kill their president Njala. However, at the last moment the political 
situation changes and the French secret service turns him in to the African 
authorities, and he is sentenced to a long-term imprisonment. After the 
daring escape he returns to France and deliberately informs his former chiefs 
of his presence promising them to kill Njala who has just arrived to the 
country with the official visit.

Jest historia agenta wywiadu francuskiego, który wskutek brudnych 
gier politycznych i cynicznych kalkulacji swoich zwierzchników niemal 
z dnia na dzień staje się z łowcy zwierzyną łowną. Joss Baumont zostaje 
wysłany do Afryki celem zabicia prezydenta Njala. Nie udaje się to. Joss 
zostaje uwięziony i po brawurowej ucieczce wraca do Francji gdzie słyszy 
zapowiedź oficjalnej międzypaństwowej wizyty prezydenta Njala .
Film został nominowany do Cezara za muzykę Enio Moricone i był sukcesem 
kasowym we Francji. Jest to widowiskowy dreszczowiec z twardym facetem 
i dużą spluwą.

[img]image[/img]
[img]image[/img]
[img]image[/img]

Obsada:

Jean-Paul Belmondo - Josselin Beaumont (Joss)
Jean Desailly - minister
Robert Hossein - komisarz Rosen 

Dane Techniczne:

Le professionnel (1981) - alE13.mkv
Format : Matroska
Format version : Version 2
File size : 2.81 GiB
Duration : 1h 47mn
Overall bit rate : 3 731 Kbps
Movie name : Le professionnel (1981) - alE13
Encoded date : UTC 2013-02-11 19:23:51
Writing application : mkvmerge v5.8.0 
Writing library : Lavf52.94.0

Video
ID : 1
Format : AVC
Format/Info : Advanced Video Codec
Format profile : Main@L3.1
Format settings, CABAC : Yes
Format settings, ReFrames : 2 frames
Muxing mode : Header stripping
Codec ID : V_MPEG4/ISO/AVC
Duration : 1h 47mn
Bit rate : 3 500 Kbps
Width : 1 204 pixels
Height : 720 pixels
Display aspect ratio : 1.672
Frame rate mode : Constant
Frame rate : 24.000 fps
Color space : YUV
Chroma subsampling : 4:2:0
Bit depth : 8 bits
Scan type : Progressive
Bits/(Pixel*Frame) : 0.168
Stream size : 2.59 GiB (92%)
Writing library : x264 core 112 r1834 a51816a

Audio
ID : 2
Format : AC-3
Format/Info : Audio Coding 3
Mode extension : CM (complete main)
Format settings, Endianness : Big
Muxing mode : Header stripping
Codec ID : A_AC3
Duration : 1h 47mn
Bit rate mode : Constant
Bit rate : 224 Kbps
Channel(s) : 2 channels
Channel positions : Front: L R
Sampling rate : 48.0 KHz
Bit depth : 16 bits
Compression mode : Lossy
Stream size : 173 MiB (6%)
Default : Yes
Forced : No

Text #1
ID : 3
Format : UTF-8
Codec ID : S_TEXT/UTF8
Codec ID/Info : UTF-8 Plain Text
Language : Russian
Default : No
Forced : No

Text #2
ID : 4
Format : VobSub
Muxing mode : zlib
Codec ID : S_VOBSUB
Codec ID/Info : The same subtitle format used on DVDs
Language : Polish
Default : Yes
Forced : No

Text #3
ID : 5
Format : VobSub
Muxing mode : zlib
Codec ID : S_VOBSUB
Codec ID/Info : The same subtitle format used on DVDs
Language : English
Default : No
Forced : No

Menu
00:00:00.000 : fr:Chapter 1
00:12:39.958 : fr:Chapter 2
00:28:55.250 : fr:Chapter 3
00:41:54.625 : fr:Chapter 4
00:54:46.417 : fr:Chapter 5
01:06:59.000 : fr:Chapter 6
01:21:16.667 : fr:Chapter 7
01:33:52.500 : fr:Chapter 8[/center]
1.jpg 855.617 KB
11.jpg 265.72 KB
Le professionnel (1981) - alE13.mkv 3.02 GB
Gathering some info...

Register and log in Isohunt and see no captcha anymore!

4000 symbols left
Hash B89C0C0B33BD193BEA2844B4F1E6A7C3B412E93C