Dans la maison 2012 - DVDRip - XviD

Size 737.629 MB   0 seeders     Added 2013-02-12 05:55:26

Stream torrent
Starting‥ You need BitLord! Get it from 1BitLord.com
To download or stream you need BitLord. Visit them at BitLord.com
 http://www.imdb.com/title/tt1964624/


Complete name                    : K:[www.Cpasbien.me] Dans.La.Maison.2012.FRENCH.DVDRip.XviD-UTT[www.Cpasbien.me] Dans.La.Maison.2012.FRENCH.DVDRip.XviD-UTT.avi
Format                           : AVI
Format/Info                      : Audio Video Interleave
File size                        : 703 MiB
Duration                         : 1h 40mn
Overall bit rate                 : 976 Kbps

Video
ID                               : 0
Format                           : MPEG-4 Visual
Format profile                   : Simple@L3
Format settings, BVOP            : No
Format settings, QPel            : No
Format settings, GMC             : No warppoints
Format settings, Matrix          : Default (H.263)
Codec ID                         : XVID
Codec ID/Hint                    : XviD
Duration                         : 1h 40mn
Bit rate                         : 835 Kbps
Width                            : 624 pixels
Height                           : 336 pixels
Display aspect ratio             : 1.857
Frame rate                       : 25.000 fps
Resolution                       : 8 bits
Colorimetry                      : 4:2:0
Scan type                        : Progressive
Bits/(Pixel*Frame)               : 0.159
Stream size                      : 602 MiB (86%)
Writing library                  : XviD 1.1.2 (UTC 2006-11-01)

Audio
ID                               : 1
Format                           : MPEG Audio
Format version                   : Version 1
Format profile                   : Layer 3
Mode                             : Joint stereo
Format_Settings_ModeExtension    : MS Stereo
Codec ID                         : 55
Codec ID/Hint                    : MP3
Duration                         : 1h 40mn
Bit rate mode                    : Constant
Bit rate                         : 128 Kbps
Channel(s)                       : 2 channels
Sampling rate                    : 48.0 KHz
Stream size                      : 92.3 MiB (13%)
Alignment                        : Split accross interleaves
Interleave, duration             : 24 ms (0.60 video frame)
Writing library                  : LAME3.98
 
image 
image 
image 
image 
image		
Dans.La.Maison.2012.FRENCH.DVDRip.XviD-UTT.avi 737.629 MB
Gathering some info...

Register and log in Isohunt and see no captcha anymore!

4000 symbols left
Hash A5647A7C9DB0BD732FD02A20756FC79C1D604166

Related torrents for "Dans la maison 2012 - DVDRip - XviD"

Torrent search:

dvdrip 2012