imdb
rating

5.9
Tower Block

Tower Block (2012)

Thriller

Full description
quality   dvdrip x264 h264 dvdr hd bd fullhd

Tower Block 2012 DVDRIP - DubsTeam

Size 911.27 MB   1 seeders     Added 2013-02-12 14:40:58

Stream torrent
Starting‥ You need BitLord! Get it from BitLord.com
To download or stream you need BitLord. Visit them at BitLord.com
Video
ID : 0
Format : AVC
Format/Info : Advanced Video Codec
Format profile : Main@L5.1
Format settings, CABAC : Yes
Format settings, ReFrames : 1 frame
Codec ID : H264
Duration : 1h 25mn
Bit rate : 1 220 Kbps
Width : 1 280 pixels
Height : 720 pixels
Display aspect ratio : 16:9
Frame rate : 30.000 fps
Color space : YUV
Chroma subsampling : 4:2:0
Bit depth : 8 bits
Scan type : Progressive
Bits/(Pixel*Frame) : 0.044
Stream size : 745 MiB (86%)

Audio
ID : 1
Format : MPEG Audio
Format version : Version 1
Format profile : Layer 3
Codec ID : 55
Codec ID/Hint : MP3
Duration : 1h 25mn
Bit rate mode : Constant
Bit rate : 192 Kbps
Channel(s) : 2 channels
Sampling rate : 44.1 KHz
Compression mode : Lossy
Stream size : 117 MiB (13%)
Alignment : Split accross interleaves
Interleave, duration : 34 ms (1.03 video frame)
Interleave, preload duration : 109 ms
Writing library : LAMELAME_MAJOR_VERSI
Tower Block 2012 DVDRIP - DubsTeam.avi 911.27 MB
Gathering some info...

Register and log in Isohunt and see no captcha anymore!

4000 symbols left
Hash 9029DBE602B7671A677935EDEC3C251B071DB336

Related torrents for "Tower Block 2012 DVDRIP - DubsTeam"

Torrent search:

dvdrip 2012