imdb
rating

6.1
Seed

Seed (2013)

Comedy

Full description

Seed.S01E02.HDTV.XviD-PJA.avi

Size 182.952 MB   0 seeders     Added 2013-02-12 07:24:11

Stream torrent
Starting‥ You need BitLord! Get it from 1BitLord.com
To download or stream you need BitLord. Visit them at BitLord.com
This is my first video upload to The Pirate Bay so please be kind. I will seed this until I get to a 1.5 ratio and then its up to you folks to keep it alive and I believe you will.

Software Used: Freemake Video Converter / AVI ReComp

XviD | 624x352 | MP3 @ 128 CBR | 175MB

Source: Black.Mirror.S02E01.HDTV.x264-FoV

NOTE: This is a Re-encode.

----------------------------------------------------------------------------------

General
Complete name                            : Seed.S01E02.HDTV.XviD-PJA.avi
Format                                   : AVI
Format/Info                              : Audio Video Interleave
File size                                : 174 MiB
Duration                                 : 21mn 46s
Overall bit rate                         : 1 121 Kbps
Writing application                      : VirtualDubMod 1.5.10.2 (build 2542/release)
Writing library                          : VirtualDubMod build 2542/release

Video
ID                                       : 0
Format                                   : MPEG-4 Visual
Format profile                           : Advanced Simple@L5
Format settings, BVOP                    : 1
Format settings, QPel                    : No
Format settings, GMC                     : No warppoints
Format settings, Matrix                  : Default (H.263)
Muxing mode                              : Packed bitstream
Codec ID                                 : XVID
Codec ID/Hint                            : XviD
Duration                                 : 21mn 46s
Bit rate                                 : 983 Kbps
Width                                    : 624 pixels
Height                                   : 352 pixels
Display aspect ratio                     : 16:9
Frame rate                               : 23.976 fps
Color space                              : YUV
Chroma subsampling                       : 4:2:0
Bit depth                                : 8 bits
Scan type                                : Progressive
Compression mode                         : Lossy
Bits/(Pixel*Frame)                       : 0.187
Stream size                              : 153 MiB (88%)
Writing library                          : XviD 64

Audio
ID                                       : 1
Format                                   : MPEG Audio
Format version                           : Version 1
Format profile                           : Layer 3
Mode                                     : Joint stereo
Mode extension                           : MS Stereo
Codec ID                                 : 55
Codec ID/Hint                            : MP3
Duration                                 : 21mn 46s
Bit rate mode                            : Constant
Bit rate                                 : 128 Kbps
Channel(s)                               : 2 channels
Sampling rate                            : 48.0 KHz
Compression mode                         : Lossy
Stream size                              : 19.9 MiB (11%)
Alignment                                : Aligned on interleaves
Interleave, duration                     : 42 ms (1.00 video frame)
Interleave, preload duration             : 504 ms
Writing library                          : LAME3.98.4
-----------------------------------------------------------------------------------------------------------------------Torrent downloaded from http://thepiratebay.se
Seed.S01E02.HDTV.XviD-PJA.avi 182.952 MB
Gathering some info...

Register and log in Isohunt and see no captcha anymore!

4000 symbols left
Hash 1cface3358b5dd498dd398b899b89e7f68b8a6bd

Related torrents for "Seed.S01E02.HDTV.XviD-PJA.avi"

Torrent search:

season 01 episode 02 hdtv